Модераторы: K15, Младшие модераторы, Модераторы

Идеальное сочетание / A Perfect Pairing (Стюарт МакДональд) [2022, комедия, мелодрама, WEB-DL 720p / D]

Сообщение Sovetnik » 01 июн 2022, 19:40

#777

Идеальное сочетание / A Perfect Pairing


Информация о фильме
Название: Идеальное сочетание
Оригинальное название: A Perfect Pairing
Год выхода: 2022
Страна: Канада, США
Студия: DAE Light Media, Front Row Films, Hoodlum Entertainment
Продолжительность: 01:42:40
Перевод: Дублированный (IYUNO SDI Group)
Жанр: комедия, мелодрама

Режиссер: Стюарт МакДональд

В ролях: Виктория Джастис, Адам Демос, Кори Уильямс, Саманта Толдж, Emma Kate Lawrence, Трейси Филмер, Николас Браун, Антонио Альварес...

О фильме:
Кулинарный и винный критик Кристина едет на австралийскую овцеводческую ферму, чтобы найти крупного клиента, и там она в конечном итоге работает на ранчо и зажигает с суровым местным жителем..



Файл
Формат: Matroska
Качество: WEB-DL 720p
Видео: 1280x720 at 23.976 fps, x264@L3.1, ~2510 kbps
Аудио: AC3, 6 ch, ~640 kbps - | Русский |
Субтитры: Русские (Forced, Full)
Формат субтитров: softsub (SRT)

General
Unique ID : 155173098577087932857732773161226408295 (0x74BD407026CAF181DC1B2F3FC31B1167)
Complete name : K:A.Perfect.Pairing.2022.NF.WEB-DL.x264.720p.mkv
Format : Matroska
Format version : Version 4
File size : 1.87 GiB
Duration : 1 h 42 min
Overall bit rate mode : Variable
Overall bit rate : 2 605 kb/s
Movie name : -=DoMiNo=-
Encoded date : UTC 2022-05-19 15:46:46
Writing application : mkvmerge v63.0.0 ('Everything') 64-bit
Writing library : libebml v1.4.2 + libmatroska v1.6.4
Cover : Yes
Attachments : cover.jpg / cover 2.jpg

Video
ID : 1
Format : AVC
Format/Info : Advanced Video Codec
Format profile : Main@L3.1
Format settings : CABAC / 3 Ref Frames
Format settings, CABAC : Yes
Format settings, Reference : 3 frames
Codec ID : V_MPEG4/ISO/AVC
Duration : 1 h 42 min
Bit rate mode : Variable
Bit rate : 1 963 kb/s
Nominal bit rate : 2 510 kb/s
Maximum bit rate : 4 740 kb/s
Width : 1 280 pixels
Height : 720 pixels
Display aspect ratio : 16:9
Frame rate mode : Constant
Frame rate : 24.000 FPS
Color space : YUV
Chroma subsampling : 4:2:0
Bit depth : 8 bits
Scan type : Progressive
Bits/(Pixel*Frame) : 0.089
Stream size : 1.41 GiB (75%)
Writing library : x264 core 148 r2727 7d026e8
Encoding settings : cabac=1 / ref=3 / deblock=1:0:0 / analyse=0x1:0x111 / me=umh / subme=10 / psy=1 / psy_rd=1.00:0.00 / mixed_ref=1 / me_range=24 / chroma_me=1 / trellis=2 / 8x8dct=0 / cqm=0 / deadzone=21,11 / fast_pskip=1 / chroma_qp_offset=-2 / threads=8 / lookahead_threads=1 / sliced_threads=0 / nr=0 / decimate=1 / interlaced=0 / bluray_compat=0 / stitchable=1 / constrained_intra=0 / bframes=2 / b_pyramid=0 / b_adapt=2 / b_bias=0 / direct=3 / weightb=1 / open_gop=0 / weightp=2 / keyint=250 / keyint_min=24 / scenecut=0 / intra_refresh=0 / rc_lookahead=48 / rc=2pass / mbtree=1 / bitrate=2510 / ratetol=1.0 / qcomp=0.50 / qpmin=6 / qpmax=51 / qpstep=4 / cplxblur=20.0 / qblur=0.5 / vbv_maxrate=4740 / vbv_bufsize=6320 / nal_hrd=vbr / filler=0 / ip_ratio=1.40 / aq=1:1.00
Language : English
Default : Yes
Forced : No

Audio
ID : 2
Format : AC-3
Format/Info : Audio Coding 3
Commercial name : Dolby Digital
Codec ID : A_AC3
Duration : 1 h 42 min
Bit rate mode : Constant
Bit rate : 640 kb/s
Channel(s) : 6 channels
Channel layout : L R C LFE Ls Rs
Sampling rate : 48.0 kHz
Frame rate : 31.250 FPS (1536 SPF)
Compression mode : Lossy
Stream size : 470 MiB (25%)
Title : DUB
Language : Russian
Service kind : Complete Main
Default : Yes
Forced : No

Text #1
ID : 3
Format : UTF-8
Codec ID : S_TEXT/UTF8
Codec ID/Info : UTF-8 Plain Text
Duration : 1 h 40 min
Bit rate : 1 b/s
Count of elements : 25
Stream size : 836 Bytes (0%)
Title : Forced
Language : Russian
Default : Yes
Forced : No

Text #2
ID : 4
Format : UTF-8
Codec ID : S_TEXT/UTF8
Codec ID/Info : UTF-8 Plain Text
Duration : 1 h 40 min
Bit rate : 103 b/s
Count of elements : 1298
Stream size : 75.7 KiB (0%)
Language : Russian
Default : No
Forced : No

Menu
01:36:29.000 : en:Credits

***Релиз от: -=DoMiNo=-
Sovetnik
Аватара пользователя
 
Раздал: 32.14 ТБ
Скачал: 13.23 ГБ
Ратио: 2488.285
Сообщения: 1918
Зарегистрирован: 13 фев 2014, 05:19
  • Торрент
Автор: Sovetnik Хэш: ---
Добавлен: 01 июн 2022, 19:40 Приватный: Нет (DHT включён)
Статус: Проверен
Размер: 1.87 ГБ (2 006 001 981 байт)
Изменил:
---
Скачали: 1625 (Раздающих: 0%)
Причина:
---
Здоровье: 100%
Сидеров: 159 Личеров: 11
Скорость раздачи: 0 байт/сек Скорость скачивания: 0 байт/сек
Последний сидер: 1 месяц 4 дня 15 часов 13 минут 17 секунд назад Последний личер: 1 месяц 4 дня 15 часов 13 минут 17 секунд назад
Для скачивания торрента необходимо зарегистрироваться или войти на трекер.

Форум Статистика

Сейчас этот форум просматривают: нет зарегистрированных пользователей и гости: 10

Настройки

Вернуться в Фильмы / HDTV / HD / Blu-Ray

cron
Ресурс не предоставляет электронные версии произведений, а занимается лишь коллекционированием и каталогизацией ссылок, присылаемых и публикуемых на форуме нашими читателями. Если вы являетесь правообладателем какого-либо представленного материала и не желаете чтобы ссылка на него находилась в нашем каталоге, свяжитесь с нами и мы незамедлительно удалим её. Файлы для обмена на трекере предоставлены пользователями сайта, и администрация не несёт ответственности за их содержание. Просьба не заливать файлы, защищенные авторскими правами, а также файлы нелегального содержания!
tracker_cron