Модераторы: K15, Младшие модераторы, Модераторы

Морбиус / Morbius (Даниэль Эспиноса) [2022, Ужасы, фантастика, боевик, триллер, фэнтези, WEB-DLRip-AVC / P]

Сообщение 7Max7 » 14 май 2022, 23:16

#777

Морбиус / Morbius


Информация о фильме
Название: Морбиус
Оригинальное название: Morbius
Год выхода: 2022
Страна: США
Студия: Columbia Pictures, Marvel Entertainment
Продолжительность: 01:43:27
Перевод: Профессиональный (многоголосый, закадровый) | NewComers
Жанр: Ужасы, фантастика, боевик, триллер, фэнтези

Режиссер: Даниэль Эспиноса

В ролях: Джаред Лето, Майкл Китон, Адриа Архона, Джаред Харрис, Мэтт Смит, Тайриз Гибсон, Кори Джонсон, Арчи Рено, Чарли Шотуэлл, Аль Мадригал и другие.

О фильме:
Майкл Морбиус с детства страдает от редкого заболевания крови и всю свою сознательную жизнь посвятил поискам лекарства. В какой-то момент Майкл видит возможное спасение в крови летучих мышей и решается на рискованный эксперимент. Опыт вызывает неожиданную реакцию: вступив в связь с больными клетками, он меняет тело Морбиуса, превращая его в кровожадного монстра....





Файл
Формат: Matroska
Качество: WEB-DLRip-AVC
Видео: 1024x426 at 23.976 fps, x264@L4.1, ~1979 kbps
Аудио 1: AAC, 2 ch, ~192 kbps - | Русский |
Аудио 2: AAC, 2 ch, ~125 kbps - | Английский |
Субтитры: Английские
Формат субтитров: softsub (SRT)

x264 [info]: frame I:1070 Avg QP:15.37 size: 46381
x264 [info]: frame P:35325 Avg QP:17.52 size: 20490
x264 [info]: frame B:112405 Avg QP:19.31 size: 6774

General
Unique ID : 115264216026067597693195839629254482554 (0x56B7149CB3DF1AD40AAC5265EE7C5A7A)
Complete name : L:Morbius.2022.WEB-DLRip.x264.mkv
Format : Matroska
Format version : Version 4
File size : 1.66 GiB
Duration : 1 h 43 min
Overall bit rate : 2 303 kb/s
Encoded date : UTC 2022-05-14 16:43:51
Writing application : mkvmerge v63.0.0 ('Everything') 64-bit
Writing library : libebml v1.4.2 + libmatroska v1.6.4
Cover : Yes
Attachments : cover.jpg / cover 2.jpg

Video
ID : 1
Format : AVC
Format/Info : Advanced Video Codec
Format profile : High@L4.1
Format settings : CABAC / 11 Ref Frames
Format settings, CABAC : Yes
Format settings, Reference : 11 frames
Codec ID : V_MPEG4/ISO/AVC
Duration : 1 h 43 min
Bit rate : 1 979 kb/s
Width : 1 024 pixels
Height : 426 pixels
Display aspect ratio : 2.40:1
Frame rate mode : Constant
Frame rate : 23.976 (24000/1001) FPS
Color space : YUV
Chroma subsampling : 4:2:0
Bit depth : 8 bits
Scan type : Progressive
Bits/(Pixel*Frame) : 0.189
Stream size : 1.43 GiB (86%)
Title : -=DoMiNo=-
Writing library : x264 core 164 r3094 bfc87b7
Encoding settings : cabac=1 / ref=11 / deblock=1:-2:-2 / analyse=0x3:0x133 / me=umh / subme=10 / psy=1 / psy_rd=1.07:0.20 / mixed_ref=1 / me_range=32 / chroma_me=1 / trellis=2 / 8x8dct=1 / cqm=0 / deadzone=21,11 / fast_pskip=0 / chroma_qp_offset=-3 / threads=17 / lookahead_threads=3 / sliced_threads=0 / nr=0 / decimate=0 / interlaced=0 / bluray_compat=0 / constrained_intra=0 / bframes=10 / b_pyramid=2 / b_adapt=2 / b_bias=0 / direct=3 / weightb=1 / open_gop=0 / weightp=2 / keyint=250 / keyint_min=23 / scenecut=40 / intra_refresh=0 / rc_lookahead=60 / rc=crf / mbtree=0 / crf=18.5 / qcomp=0.65 / qpmin=0 / qpmax=69 / qpstep=4 / vbv_maxrate=50000 / vbv_bufsize=62500 / crf_max=0.0 / nal_hrd=none / filler=0 / ip_ratio=1.35 / pb_ratio=1.25 / aq=2:1.00
Language : English
Default : Yes
Forced : No
Color range : Limited
Color primaries : BT.709
Transfer characteristics : BT.709
Matrix coefficients : BT.709

Audio #1
ID : 2
Format : AAC LC
Format/Info : Advanced Audio Codec Low Complexity
Codec ID : A_AAC-2
Duration : 1 h 43 min
Bit rate : 192 kb/s
Channel(s) : 2 channels
Channel layout : L R
Sampling rate : 48.0 kHz
Frame rate : 46.875 FPS (1024 SPF)
Compression mode : Lossy
Stream size : 145 MiB (9%)
Title : MVO_NewComers
Language : Russian
Default : Yes
Forced : No

Audio #2
ID : 3
Format : AAC LC
Format/Info : Advanced Audio Codec Low Complexity
Codec ID : A_AAC-2
Duration : 1 h 43 min
Bit rate : 125 kb/s
Channel(s) : 2 channels
Channel layout : L R
Sampling rate : 48.0 kHz
Frame rate : 46.875 FPS (1024 SPF)
Compression mode : Lossy
Delay relative to video : 7 ms
Stream size : 92.8 MiB (5%)
Language : English
Default : No
Forced : No

Text
ID : 4
Format : UTF-8
Codec ID : S_TEXT/UTF8
Codec ID/Info : UTF-8 Plain Text
Duration : 1 h 34 min
Bit rate : 40 b/s
Count of elements : 953
Stream size : 27.9 KiB (0%)
Language : English
Default : No
Forced : No

Menu
00:00:00.000 : :Глава 01
00:09:10.000 : :Глава 02
00:18:20.000 : :Глава 03
00:27:30.000 : :Глава 04
00:36:40.000 : :Глава 05
00:45:50.000 : :Глава 06
00:55:00.000 : :Глава 07
01:04:10.000 : :Глава 08
01:13:20.000 : :Глава 09
01:22:30.000 : :Глава 10
01:31:40.000 : :Глава 11
01:40:50.000 : :Глава 12

***Релиз от: -=DoMiNo=-
7Max7
Аватара пользователя
 
Раздал: 491.08 ГБ
Скачал: 4.25 ГБ
Ратио: 115.495
Сообщения: 481
Зарегистрирован: 14 фев 2014, 18:28
  • Торрент
Автор: 7Max7 Хэш: ---
Добавлен: 14 май 2022, 23:16 Приватный: Нет (DHT включён)
Статус: Проверен
Размер: 1.66 ГБ (1 786 677 160 байт)
Изменил:
---
Скачали: 92521 (Раздающих: 0%)
Причина:
---
Здоровье: 100%
Сидеров: 4331 Личеров: 417
Скорость раздачи: 0 байт/сек Скорость скачивания: 0 байт/сек
Последний сидер: 1 месяц 3 дня 16 часов 40 минут 44 секунды назад Последний личер: 1 месяц 3 дня 16 часов 40 минут 44 секунды назад
Для скачивания торрента необходимо зарегистрироваться или войти на трекер.

Форум Статистика

Сейчас этот форум просматривают: нет зарегистрированных пользователей и гости: 6

Настройки

Вернуться в Фильмы / HDTV / HD / Blu-Ray

cron
Ресурс не предоставляет электронные версии произведений, а занимается лишь коллекционированием и каталогизацией ссылок, присылаемых и публикуемых на форуме нашими читателями. Если вы являетесь правообладателем какого-либо представленного материала и не желаете чтобы ссылка на него находилась в нашем каталоге, свяжитесь с нами и мы незамедлительно удалим её. Файлы для обмена на трекере предоставлены пользователями сайта, и администрация не несёт ответственности за их содержание. Просьба не заливать файлы, защищенные авторскими правами, а также файлы нелегального содержания!
tracker_cron