Модераторы: K15, Младшие модераторы, Модераторы

Муха 2 / The Fly II (1989) BDRip 1080p | P, P2, A

Сообщение Крутой перец » 11 апр 2022, 04:00

#777
Информация о фильме
Название: Муха 2
Оригинальное название: The Fly II
Год выхода: 1989
Страна: США
Студия: 20th Century Fox Film Corporation, Brooksfilms
Продолжительность: 01:44:35
Перевод: Профессиональный многоголосый, профессиональный двухголосый, авторский
Жанр: Ужасы, фантастика

Режиссер: Крис Уолас

В ролях: Эрик Штольц, Дафна Зунига, Ли Ричардсон, Джон Гец, Фрэнк Ч. Тёрнер, Энн Мари Ли, Гари Чок, Сэффрон Хендерсон, Харли Кросс, Мэттью Мур, Роб Рой, Эндрю Роудс, Пэт Бермел, Уильям С. Тейлор, Джерри Вассерман, Дункан Фрайзер, Джанет Ходжкинсон, Шон О’Бирн, Майк Уинлоу, Аллан Лайселл, Сюзанн Ристич, Дэнни Вирту, Кен Камру, Брюс Харвуд, Лорена Гэйл, Билл Дау, Дэвид Милреа, Роберт Меткаф, Гарвин Санфорд, Том Хитон

О фильме:
Под внешним, совершенно нормальным обликом молодого Мартина Брандла, сына, гениального ученого-биолога Сэта Брандла, скрывается самый необыкновенный человек из когда-либо живших на земле. Его генетический код был изменен в ходе неудавшегося научного эксперимента. Группа ученых содержит мутанта в научно-исследовательском центре и растит в строжайшем секрете, скрывая от него тайну его рождения и терпеливо ожидая начала превращения...



Файл
Формат: MKV
Качество: BDRip 1080p
Видео: MPEG-4 AVC, 11.5 Мбит/с, 1920x1036, 23.976 кадр/с
Аудио:
• №01: Русский (AC3, 2 ch, 384 Кбит/с) Профессиональный многоголосый, HTB+ Мир Кино
• №02: Русский (AC3, 6 ch, 448 Кбит/с) Профессиональный многоголосый, R5 - Двадцатый Век Фокс СНГ (= Первый HD)
• №03: Русский (AC3, 6 ch, 384 Кбит/с) Профессиональный многоголосый, D2lab
• №04: Русский (AC3, 6 ch, 384 Кбит/с) Профессиональный многоголосый, неизвестный (DDV)
• №05: Русский (AC3, 2 ch, 192 Кбит/с) Профессиональный многоголосый, Премьер Видео Фильм (VHSRip alenavova)
• №06: Русский (AC3, 2 ch, 192 Кбит/с) Профессиональный двухголосый, РЕН ТВ (А. Клюквин и Л. Гнилова) (VHSRip Fikaloid)
• №07: Русский (AC3, 6 ch, 448 Кбит/с) Авторский одноголосый, Вартан Дохалов
• №08: Русский (AC3, 2 ch, 192 Кбит/с) Авторский одноголосый, Василий Горчаков, (вариант 1 - VHSRip alenavova)
• №09: Русский (AC3, 6 ch, 448 Кбит/с) Авторский одноголосый, Василий Горчаков, (вариант 2 - DVD)
• №10: Английский (DTS, 6 ch, 1509 Кбит/с) Original
• №11: Английский (AC3, 2 ch, 192 Кбит/с) Commentary (Chris Walas and Film Historian Bob Burns)
Субтитры: Русские, английские
Скриншоты:


Автор: viking2500

За дорогу №01 спасибо Home Video
За дорогу №02 спасибо Irbis-06
За дорогу №03 спасибо spartac
За дорогу №04 спасибо @EinsteiN@
За дорогу №05 спасибо alenavova и edich2
За дорогу №06 спасибо Fikaloid и JUSTKANT
За дорогу №08 спасибо alenavova и JUSTKANT
За дороги №07 и №09 спасибо Хозяинова Елена

Особая благодарность alenavova и Fikaloid - за обработку и доступность раритетных дорожек с VHS.
Полное имя : D:ЗАГРУЗКИThe.Fly.II.1989.BDRip.1080p.9xRus.2xEng.DTS.SubRusEng.mkv
Формат : Matroska
Версия формата : Version 4 / Version 2
Размер файла : 11,7 Гбайт
Продолжительность : 1 ч. 44 м.
Общий поток : 16,0 Мбит/сек
Название фильма : The.Fly.II.1989.1080p.BluRay.x264.DTS-FGT
Дата кодирования : UTC 2018-03-22 19:49:32
Программа кодирования : mkvmerge v19.0.0 ('Brave Captain') 64-bit
Библиотека кодирования : libebml v1.3.5 + libmatroska v1.4.8
Обложка : Yes
Attachments : cover.jpg

Видео
Идентификатор : 1
Формат : AVC
Формат/Информация : Advanced Video Codec
Профиль формата : High@L4.1
Параметр CABAC формата : Да
Параметр ReFrames формата : 4 кадра
Идентификатор кодека : V_MPEG4/ISO/AVC
Продолжительность : 1 ч. 44 м.
Битрейт : 10,9 Мбит/сек
Номинальный битрейт : 11,5 Мбит/сек
Ширина : 1920 пикселей
Высота : 1036 пикселей
Соотношение сторон : 1,85:1
Режим частоты кадров : Постоянный
Частота кадров : 23,976 (24000/1001) кадра/сек
Цветовое пространство : YUV
Субдискретизация насыщенности : 4:2:0
Битовая глубина : 8 бит
Тип развёртки : Прогрессивная
Бит/(Пиксели*Кадры) : 0.229
Размер потока : 7,99 Гбайт (68%)
Заголовок : The.Fly.II.1989.1080p.BluRay.x264.DTS-FGT
Библиотека кодирования : x264 core 148 r2795 aaa9aa8
Настройки программы : cabac=1 / ref=4 / deblock=1:-2:-2 / analyse=0x3:0x113 / me=umh / subme=9 / psy=1 / psy_rd=1.00:0.15 / mixed_ref=1 / me_range=16 / chroma_me=1 / trellis=2 / 8x8dct=1 / cqm=0 / deadzone=21,11 / fast_pskip=1 / chroma_qp_offset=-3 / threads=24 / lookahead_threads=3 / sliced_threads=0 / nr=0 / decimate=1 / interlaced=0 / bluray_compat=0 / constrained_intra=0 / bframes=3 / b_pyramid=2 / b_adapt=2 / b_bias=0 / direct=3 / weightb=1 / open_gop=0 / weightp=2 / keyint=250 / keyint_min=25 / scenecut=40 / intra_refresh=0 / rc_lookahead=50 / rc=abr / mbtree=1 / bitrate=11500 / ratetol=1.0 / qcomp=0.60 / qpmin=0 / qpmax=69 / qpstep=4 / vbv_maxrate=31250 / vbv_bufsize=31250 / nal_hrd=none / filler=0 / ip_ratio=1.40 / aq=1:1.00
Язык : English
Default : Да
Forced : Нет

Аудио #1
Идентификатор : 2
Формат : AC-3
Формат/Информация : Audio Coding 3
Расширение режима : CM (complete main)
Параметр Endianness формата : Big
Идентификатор кодека : A_AC3
Продолжительность : 1 ч. 44 м.
Вид битрейта : Постоянный
Битрейт : 384 Кбит/сек
Каналы : 2 канала
Расположение каналов : Front: L R
Частота : 48,0 КГц
Частота кадров : 31,250 кадров/сек (1536 spf)
Битовая глубина : 16 бит
Метод сжатия : С потерями
Размер потока : 287 Мбайт (2%)
Заголовок : MVO, HTB+ Мир Кино
Язык : Russian
Default : Да
Forced : Нет

Аудио #2
Идентификатор : 3
Формат : AC-3
Формат/Информация : Audio Coding 3
Расширение режима : CM (complete main)
Параметр Endianness формата : Big
Идентификатор кодека : A_AC3
Продолжительность : 1 ч. 44 м.
Вид битрейта : Постоянный
Битрейт : 448 Кбит/сек
Каналы : 6 каналов
Расположение каналов : Front: L C R, Side: L R, LFE
Частота : 48,0 КГц
Частота кадров : 31,250 кадров/сек (1536 spf)
Битовая глубина : 16 бит
Метод сжатия : С потерями
Размер потока : 335 Мбайт (3%)
Заголовок : MVO, R5 - Двадцатый Век Фокс СНГ (= Первый HD)
Язык : Russian
Default : Нет
Forced : Нет

Аудио #3
Идентификатор : 4
Формат : AC-3
Формат/Информация : Audio Coding 3
Расширение режима : CM (complete main)
Параметр Endianness формата : Big
Идентификатор кодека : A_AC3
Продолжительность : 1 ч. 44 м.
Вид битрейта : Постоянный
Битрейт : 384 Кбит/сек
Каналы : 6 каналов
Расположение каналов : Front: L C R, Side: L R, LFE
Частота : 48,0 КГц
Частота кадров : 31,250 кадров/сек (1536 spf)
Битовая глубина : 16 бит
Метод сжатия : С потерями
Размер потока : 287 Мбайт (2%)
Заголовок : MVO, D2lab
Язык : Russian
Default : Нет
Forced : Нет

Аудио #4
Идентификатор : 5
Формат : AC-3
Формат/Информация : Audio Coding 3
Расширение режима : CM (complete main)
Параметр Endianness формата : Big
Идентификатор кодека : A_AC3
Продолжительность : 1 ч. 44 м.
Вид битрейта : Постоянный
Битрейт : 384 Кбит/сек
Каналы : 6 каналов
Расположение каналов : Front: L C R, Side: L R, LFE
Частота : 48,0 КГц
Частота кадров : 31,250 кадров/сек (1536 spf)
Битовая глубина : 16 бит
Метод сжатия : С потерями
Размер потока : 287 Мбайт (2%)
Заголовок : MVO, неизвестный (DDV)
Язык : Russian
Default : Нет
Forced : Нет

Аудио #5
Идентификатор : 6
Формат : AC-3
Формат/Информация : Audio Coding 3
Расширение режима : CM (complete main)
Параметр Endianness формата : Big
Идентификатор кодека : A_AC3
Продолжительность : 1 ч. 44 м.
Вид битрейта : Постоянный
Битрейт : 192 Кбит/сек
Каналы : 2 канала
Расположение каналов : Front: L R
Частота : 48,0 КГц
Частота кадров : 31,250 кадров/сек (1536 spf)
Битовая глубина : 16 бит
Метод сжатия : С потерями
Размер потока : 144 Мбайт (1%)
Заголовок : MVO, Премьер Видео Фильм (VHSRip alenavova)
Язык : Russian
Default : Нет
Forced : Нет

Аудио #6
Идентификатор : 7
Формат : AC-3
Формат/Информация : Audio Coding 3
Расширение режима : CM (complete main)
Параметр Endianness формата : Big
Идентификатор кодека : A_AC3
Продолжительность : 1 ч. 44 м.
Вид битрейта : Постоянный
Битрейт : 192 Кбит/сек
Каналы : 2 канала
Расположение каналов : Front: L R
Частота : 48,0 КГц
Частота кадров : 31,250 кадров/сек (1536 spf)
Битовая глубина : 16 бит
Метод сжатия : С потерями
Размер потока : 144 Мбайт (1%)
Заголовок : DVO, РЕН ТВ (А. Клюквин и Л. Гнилова) (VHSRip Fikaloid)
Язык : Russian
Default : Нет
Forced : Нет

Аудио #7
Идентификатор : 8
Формат : AC-3
Формат/Информация : Audio Coding 3
Расширение режима : CM (complete main)
Параметр Endianness формата : Big
Идентификатор кодека : A_AC3
Продолжительность : 1 ч. 44 м.
Вид битрейта : Постоянный
Битрейт : 448 Кбит/сек
Каналы : 6 каналов
Расположение каналов : Front: L C R, Side: L R, LFE
Частота : 48,0 КГц
Частота кадров : 31,250 кадров/сек (1536 spf)
Битовая глубина : 16 бит
Метод сжатия : С потерями
Размер потока : 335 Мбайт (3%)
Заголовок : AVO, Вартан Дохалов
Язык : Russian
Default : Нет
Forced : Нет

Аудио #8
Идентификатор : 9
Формат : AC-3
Формат/Информация : Audio Coding 3
Расширение режима : CM (complete main)
Параметр Endianness формата : Big
Идентификатор кодека : A_AC3
Продолжительность : 1 ч. 44 м.
Вид битрейта : Постоянный
Битрейт : 192 Кбит/сек
Каналы : 2 канала
Расположение каналов : Front: L R
Частота : 48,0 КГц
Частота кадров : 31,250 кадров/сек (1536 spf)
Битовая глубина : 16 бит
Метод сжатия : С потерями
Размер потока : 144 Мбайт (1%)
Заголовок : AVO, Василий Горчаков, (вариант 1 - VHSRip alenavova)
Язык : Russian
Default : Нет
Forced : Нет

Аудио #9
Идентификатор : 10
Формат : AC-3
Формат/Информация : Audio Coding 3
Расширение режима : CM (complete main)
Параметр Endianness формата : Big
Идентификатор кодека : A_AC3
Продолжительность : 1 ч. 44 м.
Вид битрейта : Постоянный
Битрейт : 448 Кбит/сек
Каналы : 6 каналов
Расположение каналов : Front: L C R, Side: L R, LFE
Частота : 48,0 КГц
Частота кадров : 31,250 кадров/сек (1536 spf)
Битовая глубина : 16 бит
Метод сжатия : С потерями
Размер потока : 335 Мбайт (3%)
Заголовок : AVO, Василий Горчаков, (вариант 2 - DVD)
Язык : Russian
Default : Нет
Forced : Нет

Аудио #10
Идентификатор : 11
Формат : DTS
Формат/Информация : Digital Theater Systems
Режим : 16
Параметр Endianness формата : Big
Идентификатор кодека : A_DTS
Продолжительность : 1 ч. 44 м.
Вид битрейта : Постоянный
Битрейт : 1509 Кбит/сек
Каналы : 6 каналов
Расположение каналов : Front: L C R, Side: L R, LFE
Частота : 48,0 КГц
Частота кадров : 93,750 кадра/сек (512 spf)
Битовая глубина : 16 бит
Метод сжатия : С потерями
Размер потока : 1,10 Гбайт (9%)
Заголовок : Original
Язык : English
Default : Нет
Forced : Нет

Аудио #11
Идентификатор : 12
Формат : AC-3
Формат/Информация : Audio Coding 3
Расширение режима : CM (complete main)
Параметр Endianness формата : Big
Идентификатор кодека : A_AC3
Продолжительность : 1 ч. 44 м.
Вид битрейта : Постоянный
Битрейт : 192 Кбит/сек
Каналы : 2 канала
Расположение каналов : Front: L R
Частота : 48,0 КГц
Частота кадров : 31,250 кадров/сек (1536 spf)
Битовая глубина : 16 бит
Метод сжатия : С потерями
Размер потока : 144 Мбайт (1%)
Заголовок : Commentary (Chris Walas and Film Historian Bob Burns)
Язык : English
Default : Нет
Forced : Нет

Текст #1
Идентификатор : 13
Формат : UTF-8
Идентификатор кодека : S_TEXT/UTF8
Идентификатор кодека/Информация : UTF-8 Plain Text
Заголовок : Full, на основе перевода - MVO, D2lab
Язык : Russian
Default : Да
Forced : Нет

Текст #2
Идентификатор : 14
Формат : UTF-8
Идентификатор кодека : S_TEXT/UTF8
Идентификатор кодека/Информация : UTF-8 Plain Text
Заголовок : Full
Язык : English
Default : Нет
Forced : Нет

Меню
00:00:00.000 : en:Chapter 01
00:04:54.085 : en:Chapter 02
00:18:19.765 : en:Chapter 03
00:29:39.861 : en:Chapter 04
00:42:30.965 : en:Chapter 05
00:57:01.042 : en:Chapter 06
01:07:34.216 : en:Chapter 07
01:20:08.470 : en:Chapter 08
01:31:34.822 : en:Chapter 09
01:41:13.192 : en:Chapter 10
Крутой перец
Аватара пользователя
 
Раздал: 265.74 ГБ
Скачал: 1.45 ГБ
Ратио: 183.536
Сообщения: 211
Зарегистрирован: 10 июл 2014, 11:59
  • Торрент
Автор: Крутой перец Хэш: ---
Добавлен: 11 апр 2022, 04:00 Приватный: Нет (DHT включён)
Статус: Проверен
Размер: 11.71 ГБ (12 568 866 752 байт)
Изменил:
---
Скачали: 67 (Раздающих: 0%)
Причина:
---
Здоровье: 100%
Сидеров: 4 Личеров: 0
Скорость раздачи: 0 байт/сек Скорость скачивания: 0 байт/сек
Последний сидер: 8 дней 1 час 43 минуты 13 секунд назад Последний личер: Нет
Для скачивания торрента необходимо зарегистрироваться или войти на трекер.

Форум Статистика

Сейчас этот форум просматривают: нет зарегистрированных пользователей и гости: 3

Настройки

Вернуться в Фильмы / HDTV / HD / Blu-Ray

cron
Ресурс не предоставляет электронные версии произведений, а занимается лишь коллекционированием и каталогизацией ссылок, присылаемых и публикуемых на форуме нашими читателями. Если вы являетесь правообладателем какого-либо представленного материала и не желаете чтобы ссылка на него находилась в нашем каталоге, свяжитесь с нами и мы незамедлительно удалим её. Файлы для обмена на трекере предоставлены пользователями сайта, и администрация не несёт ответственности за их содержание. Просьба не заливать файлы, защищенные авторскими правами, а также файлы нелегального содержания!