Модераторы: K15, Младшие модераторы, Модераторы

Возвращение героя / The Last Stand (Ким Джи-ун) [2013, боевик, триллер, HDRip-AVC / D / Open Matte]

Сообщение 7Max7 » 03 апр 2022, 01:43

#777

Возвращение героя / The Last Stand
«Спокойная жизнь не для него»


Информация о фильме
Название: Возвращение героя
Оригинальное название: The Last Stand
Год выхода: 2013
Страна: США
Выпущено: Lionsgate
Продолжительность: 01:47:11
Перевод: Профессиональный (дублированный)
Жанр: боевик, триллер

Режиссер: Ким Джи-ун

В ролях: Арнольд Шварценеггер, Форест Уитакер, Джонни Ноксвил, Родриго Санторо, Джейми Александр, Луис Гузман, Эдуардо Норьега, Петер Стормаре, Зак Гилфорд, Дженезис Родригес....

О фильме:
Самый опасный и жестокий наркоторговец сбегает из-под конвоя ФБР, и прихватив заложника, мчится на спорткаре к мексиканской границе. У него на пути стоит лишь тихий городок, за порядком в котором следит шериф Оуенс. Когда-то он был одним из лучших полицейских Лос-Анджелеса, но сбежал в глушь и тишину от уродств большого города. И теперь шериф Оуэнс - последний заслон на пути преступника...



Файл
Формат: Matroska
Качество: HDRip-AVC | Open Matte
Видео: 1152x648 at 23.976 fps, x264@L4.1, ~4113 kbps
Аудио: AC3, 6 ch, ~448 kbps - | Русский |
Субтитры: Русские, английские
Формат субтитров: softsub (SRT)

General
Unique ID : 191933765589161730008627735734179355644 (0x906519410AD406463222C12460F45BFC)
Complete name : L:The Last Stand.2013.Open.Matte.x264.mkv
Format : Matroska
Format version : Version 4
File size : 3.42 GiB
Duration : 1 h 47 min
Overall bit rate : 4 564 kb/s
Encoded date : UTC 2022-04-01 21:38:15
Writing application : mkvmerge v63.0.0 ('Everything') 64-bit
Writing library : libebml v1.4.2 + libmatroska v1.6.4
Cover : Yes
Attachments : cover.jpg / cover 2.jpg

Video
ID : 1
Format : AVC
Format/Info : Advanced Video Codec
Format profile : High@L4.1
Format settings : CABAC / 11 Ref Frames
Format settings, CABAC : Yes
Format settings, Reference : 11 frames
Codec ID : V_MPEG4/ISO/AVC
Duration : 1 h 47 min
Bit rate : 4 113 kb/s
Width : 1 152 pixels
Height : 648 pixels
Display aspect ratio : 16:9
Frame rate mode : Constant
Frame rate : 23.976 (24000/1001) FPS
Color space : YUV
Chroma subsampling : 4:2:0
Bit depth : 8 bits
Scan type : Progressive
Bits/(Pixel*Frame) : 0.230
Stream size : 3.08 GiB (90%)
Title : -=DoMiNo=-
Writing library : x264 core 164 r3094 bfc87b7
Encoding settings : cabac=1 / ref=11 / deblock=1:-3:-2 / analyse=0x3:0x133 / me=umh / subme=10 / psy=1 / psy_rd=1.05:0.05 / mixed_ref=1 / me_range=32 / chroma_me=1 / trellis=2 / 8x8dct=1 / cqm=0 / deadzone=21,11 / fast_pskip=0 / chroma_qp_offset=-3 / threads=20 / lookahead_threads=3 / sliced_threads=0 / nr=0 / decimate=1 / interlaced=0 / bluray_compat=0 / constrained_intra=0 / bframes=8 / b_pyramid=2 / b_adapt=2 / b_bias=0 / direct=1 / weightb=1 / open_gop=0 / weightp=2 / keyint=250 / keyint_min=23 / scenecut=40 / intra_refresh=0 / rc_lookahead=60 / rc=crf / mbtree=0 / crf=18.0 / qcomp=0.65 / qpmin=0 / qpmax=69 / qpstep=4 / vbv_maxrate=50000 / vbv_bufsize=62500 / crf_max=0.0 / nal_hrd=none / filler=0 / ip_ratio=1.30 / pb_ratio=1.20 / aq=1:0.80
Language : English
Default : Yes
Forced : No
Color range : Limited
Color primaries : BT.709
Transfer characteristics : BT.709

Audio
ID : 2
Format : AC-3
Format/Info : Audio Coding 3
Commercial name : Dolby Digital
Codec ID : A_AC3
Duration : 1 h 47 min
Bit rate mode : Constant
Bit rate : 448 kb/s
Channel(s) : 6 channels
Channel layout : L R C LFE Ls Rs
Sampling rate : 48.0 kHz
Frame rate : 31.250 FPS (1536 SPF)
Compression mode : Lossy
Stream size : 343 MiB (10%)
Title : DUB
Language : Russian
Service kind : Complete Main
Default : Yes
Forced : No

Text #1
ID : 3
Format : UTF-8
Codec ID : S_TEXT/UTF8
Codec ID/Info : UTF-8 Plain Text
Duration : 1 h 7 min
Bit rate : 0 b/s
Count of elements : 14
Stream size : 352 Bytes (0%)
Title : forced
Language : Russian
Default : Yes
Forced : No

Text #2
ID : 4
Format : UTF-8
Codec ID : S_TEXT/UTF8
Codec ID/Info : UTF-8 Plain Text
Duration : 1 h 37 min
Bit rate : 68 b/s
Count of elements : 1072
Stream size : 49.0 KiB (0%)
Title : full
Language : Russian
Default : No
Forced : No

Text #3
ID : 5
Format : UTF-8
Codec ID : S_TEXT/UTF8
Codec ID/Info : UTF-8 Plain Text
Duration : 1 h 37 min
Bit rate : 45 b/s
Count of elements : 1197
Stream size : 32.2 KiB (0%)
Language : English
Default : No
Forced : No

Menu
00:00:00.000 : :Chapter 1
00:08:46.109 : :Chapter 2
00:15:09.450 : :Chapter 3
00:25:50.632 : :Chapter 4
00:36:09.042 : :Chapter 5
00:41:52.677 : :Chapter 6
00:52:24.183 : :Chapter 7
01:02:41.591 : :Chapter 8
01:07:59.242 : :Chapter 9
01:22:47.421 : :Chapter 10
01:28:48.114 : :Chapter 11
01:39:00.685 : :Chapter 12
Open Matte-версия фильма имеет большее наполнение кадра.


***Релиз от: -=DoMiNo=-
7Max7
Аватара пользователя
 
Раздал: 491.08 ГБ
Скачал: 4.25 ГБ
Ратио: 115.495
Сообщения: 481
Зарегистрирован: 14 фев 2014, 18:28
  • Торрент
Автор: 7Max7 Хэш: ---
Добавлен: 03 апр 2022, 01:43 Приватный: Нет (DHT включён)
Статус: Проверен
Размер: 3.42 ГБ (3 668 206 058 байт)
Изменил:
---
Скачали: 189 (Раздающих: 0%)
Причина:
---
Здоровье: 100%
Сидеров: 36 Личеров: 10
Скорость раздачи: 0 байт/сек Скорость скачивания: 0 байт/сек
Последний сидер: 17 часов 8 минут 52 секунды назад Последний личер: 17 часов 8 минут 52 секунды назад
Для скачивания торрента необходимо зарегистрироваться или войти на трекер.

Форум Статистика

Сейчас этот форум просматривают: нет зарегистрированных пользователей и гости: 5

Настройки

Вернуться в Фильмы / HDTV / HD / Blu-Ray

cron
Ресурс не предоставляет электронные версии произведений, а занимается лишь коллекционированием и каталогизацией ссылок, присылаемых и публикуемых на форуме нашими читателями. Если вы являетесь правообладателем какого-либо представленного материала и не желаете чтобы ссылка на него находилась в нашем каталоге, свяжитесь с нами и мы незамедлительно удалим её. Файлы для обмена на трекере предоставлены пользователями сайта, и администрация не несёт ответственности за их содержание. Просьба не заливать файлы, защищенные авторскими правами, а также файлы нелегального содержания!
tracker_cron