Модераторы: K15, Младшие модераторы, Модераторы

Матрица: Воскрешение / The Matrix Resurrections (2021) BDRip 720p от селезень | D, P, A

Сообщение Zina » 12 мар 2022, 02:17

#777
Информация о фильме
Название: Матрица: Воскрешение
Оригинальное название: The Matrix Resurrections
Год выхода: 2021
Жанр: Фантастика, боевик
Режиссер: Лана Вачовски
В ролях: Киану Ривз, Кэрри-Энн Мосс, Кристина Риччи, Джессика Хенвик, Дэниэл Бернхард, Джонатан Грофф, Приянка Чопра Джонас, Яхья Абдул-Матин II, Эллен Холлман, Джада Пинкетт Смит



О фильме: Что делать, если окружающий мир кажется ловушкой, а самые фантастические сны больше похожи на настоящую жизнь, чем повседневная реальность? Хочешь найти правду? Следуй за белым кроликом, чтобы вернуться туда, где все началось... Обратно в Матрицу. Действие фильма «Матрица: Воскрешение» разворачивается спустя 20 лет после событий, показанных в третьей части. Отныне Нео живёт самой обычной жизнью, скрывая свою настоящую личность. Теперь его зовут Томас А. Андерсон. Нео старательно маскируется, ничем не отличаясь от среднестатистического обитателя Сан-Франциско.

Страна: США
Студия: Village Roadshow Pictures, NPV Entertainment, Silver Pictures
Продолжительность: 02:27:57
Перевод(ы):
#1: Дублированный | Кинопоиск HD
#2: Профессиональный многоголосый | HDRezka Studio
#3: Профессиональный многоголосый | Jaskier
#4: Авторский | Д. Есарев


Качество: BDRip 720p
Видео: MPEG-4 AVC, 1280x536, 3948 Kbit/s, 23.976 fps
Аудио #01: 48 kHz, E-AC3, 5.1, 448 Kbps | Дублированный | Кинопоиск HD | RUS |
Аудио #02: 48 kHz, AC3, 5.1, 448 Kbps | Дублированный | Кинопоиск HD | RUS |
Аудио #03: 48 kHz, AC3, 5.1, 448 Kbps | Профессиональный многоголосый | HDRezka Studio | RUS |
Аудио #04: 48 kHz, AC3, 5.1, 448 Kbps | Профессиональный многоголосый | Jaskier | RUS |
Аудио #05: 48 kHz, AC3, 5.1, 640 Kbps | Авторский | Д. Есарев | RUS |
Аудио #06: 48 kHz, AC3, 5.1, 384 Kbps | Профессиональный многоголосый | HDRezka Studio | UKR |
Аудио #07: 48 kHz, AC3, 5.1, 640 Kbps | Оригинал | ENG |
Субтитры: Русские (Forced, full, SDH), украинские (Forced), английские



General
Unique ID : 318716788362880577209402262768717925580 (0xEFC69EE2D54D3D047DF745604B100CCC)
Complete name : D:VideoThe.Matrix.Resurrections.2021.BDRip.720p.seleZen.mkv
Format : Matroska
Format version : Version 4
File size : 7.46 GiB
Duration : 2 h 27 min
Overall bit rate : 7 216 kb/s
Movie name : The Matrix Resurrections 2021 from seleZen
Encoded date : UTC 2022-02-19 20:37:40
Writing application : mkvmerge v59.0.0 ('Shining Star') 64-bit
Writing library : libebml v1.4.2 + libmatroska v1.6.4

Video
ID : 1
Format : AVC
Format/Info : Advanced Video Codec
Format profile : High@L4.1
Format settings : CABAC / 12 Ref Frames
Format settings, CABAC : Yes
Format settings, Reference : 12 frames
Codec ID : V_MPEG4/ISO/AVC
Duration : 2 h 27 min
Bit rate : 3 948 kb/s
Width : 1 280 pixels
Height : 536 pixels
Display aspect ratio : 2.40:1
Frame rate mode : Constant
Frame rate : 23.976 (24000/1001) FPS
Color space : YUV
Chroma subsampling : 4:2:0
Bit depth : 8 bits
Scan type : Progressive
Bits/(Pixel*Frame) : 0.240
Stream size : 4.08 GiB (55%)
Title : MTeam
Writing library : x264 core 157 r2938 2b00a84 TnP@MTeam Mod
Encoding settings : cabac=1 / ref=12 / deblock=1:-3:-3 / analyse=0x3:0x133 / me=umh / subme=10 / psy=1 / psy_rd=1.05:0.00 / mixed_ref=1 / me_range=32 / chroma_me=1 / trellis=2 / 8x8dct=1 / cqm=0 / deadzone=21,11 / fast_pskip=0 / chroma_qp_offset=-2 / threads=12 / lookahead_threads=2 / sliced_threads=0 / nr=0 / decimate=0 / interlaced=0 / bluray_compat=0 / constrained_intra=0 / bframes=8 / b_pyramid=2 / b_adapt=2 / b_bias=0 / direct=3 / weightb=1 / open_gop=0 / weightp=2 / keyint=250 / keyint_min=24 / scenecut=40 / intra_refresh=0 / rc_lookahead=250 / rc=crf / mbtree=0 / crf=16.8 / qcomp=0.60 / qpmin=0 / qpmax=69 / qpstep=4 / vbv_maxrate=62500 / vbv_bufsize=78125 / crf_max=0.0 / nal_hrd=none / filler=0 / ip_ratio=1.30 / pb_ratio=1.20 / aq=3:0.80
Language : English
Default : Yes
Forced : No
Color range : Limited
Color primaries : BT.709
Matrix coefficients : BT.709

Audio #1
ID : 2
Format : E-AC-3
Format/Info : Enhanced AC-3
Commercial name : Dolby Digital Plus
Codec ID : A_EAC3
Duration : 2 h 27 min
Bit rate mode : Constant
Bit rate : 448 kb/s
Channel(s) : 6 channels
Channel layout : L R C LFE Ls Rs
Sampling rate : 48.0 kHz
Frame rate : 31.250 FPS (1536 SPF)
Compression mode : Lossy
Stream size : 474 MiB (6%)
Title : Dub
Language : Russian
Service kind : Complete Main
Default : Yes
Forced : Yes

Audio #2
ID : 3
Format : AC-3
Format/Info : Audio Coding 3
Commercial name : Dolby Digital
Codec ID : A_AC3
Duration : 2 h 27 min
Bit rate mode : Constant
Bit rate : 448 kb/s
Channel(s) : 6 channels
Channel layout : L R C LFE Ls Rs
Sampling rate : 48.0 kHz
Frame rate : 31.250 FPS (1536 SPF)
Compression mode : Lossy
Stream size : 474 MiB (6%)
Title : Dub
Language : Russian
Service kind : Complete Main
Default : No
Forced : No

Audio #3
ID : 4
Format : AC-3
Format/Info : Audio Coding 3
Commercial name : Dolby Digital
Codec ID : A_AC3
Duration : 2 h 27 min
Bit rate mode : Constant
Bit rate : 448 kb/s
Channel(s) : 6 channels
Channel layout : L R C LFE Ls Rs
Sampling rate : 48.0 kHz
Frame rate : 31.250 FPS (1536 SPF)
Compression mode : Lossy
Stream size : 474 MiB (6%)
Title : MVO [HDRezka Studio]
Language : Russian
Service kind : Complete Main
Default : No
Forced : No

Audio #4
ID : 5
Format : AC-3
Format/Info : Audio Coding 3
Commercial name : Dolby Digital
Codec ID : A_AC3
Duration : 2 h 27 min
Bit rate mode : Constant
Bit rate : 448 kb/s
Channel(s) : 6 channels
Channel layout : L R C LFE Ls Rs
Sampling rate : 48.0 kHz
Frame rate : 31.250 FPS (1536 SPF)
Compression mode : Lossy
Stream size : 474 MiB (6%)
Title : MVO [Jaskier]
Language : Russian
Service kind : Complete Main
Default : No
Forced : No

Audio #5
ID : 6
Format : AC-3
Format/Info : Audio Coding 3
Commercial name : Dolby Digital
Codec ID : A_AC3
Duration : 2 h 27 min
Bit rate mode : Constant
Bit rate : 640 kb/s
Channel(s) : 6 channels
Channel layout : L R C LFE Ls Rs
Sampling rate : 48.0 kHz
Frame rate : 31.250 FPS (1536 SPF)
Compression mode : Lossy
Stream size : 677 MiB (9%)
Title : AVO [Yesarev]
Language : Russian
Service kind : Complete Main
Default : No
Forced : No

Audio #6
ID : 7
Format : AC-3
Format/Info : Audio Coding 3
Commercial name : Dolby Digital
Codec ID : A_AC3
Duration : 2 h 27 min
Bit rate mode : Constant
Bit rate : 384 kb/s
Channel(s) : 6 channels
Channel layout : L R C LFE Ls Rs
Sampling rate : 48.0 kHz
Frame rate : 31.250 FPS (1536 SPF)
Compression mode : Lossy
Stream size : 406 MiB (5%)
Title : MVO [HDRezka & DniproFilm]
Language : Ukrainian
Service kind : Complete Main
Default : No
Forced : No

Audio #7
ID : 8
Format : AC-3
Format/Info : Audio Coding 3
Commercial name : Dolby Digital
Format settings : Dolby Surround EX
Codec ID : A_AC3
Duration : 2 h 27 min
Bit rate mode : Constant
Bit rate : 448 kb/s
Channel(s) : 6 channels
Channel layout : L R C LFE Ls Rs
Sampling rate : 48.0 kHz
Frame rate : 31.250 FPS (1536 SPF)
Compression mode : Lossy
Stream size : 474 MiB (6%)
Title : Original
Language : English
Service kind : Complete Main
Default : No
Forced : No

Text #1
ID : 9
Format : UTF-8
Codec ID : S_TEXT/UTF8
Codec ID/Info : UTF-8 Plain Text
Duration : 2 h 24 min
Bit rate : 0 b/s
Count of elements : 11
Stream size : 386 Bytes (0%)
Title : Forced
Language : Russian
Default : Yes
Forced : Yes

Text #2
ID : 10
Format : UTF-8
Codec ID : S_TEXT/UTF8
Codec ID/Info : UTF-8 Plain Text
Duration : 2 h 26 min
Bit rate : 76 b/s
Count of elements : 1688
Stream size : 82.5 KiB (0%)
Title : Full
Language : Russian
Default : No
Forced : No

Text #3
ID : 11
Format : UTF-8
Codec ID : S_TEXT/UTF8
Codec ID/Info : UTF-8 Plain Text
Duration : 2 h 27 min
Bit rate : 96 b/s
Count of elements : 2189
Stream size : 104 KiB (0%)
Title : SDH
Language : Russian
Default : No
Forced : No

Text #4
ID : 12
Format : UTF-8
Codec ID : S_TEXT/UTF8
Codec ID/Info : UTF-8 Plain Text
Duration : 54 min 7 s
Bit rate : 2 b/s
Count of elements : 17
Stream size : 878 Bytes (0%)
Title : Forced
Language : Ukrainian
Default : No
Forced : No

Text #5
ID : 13
Format : UTF-8
Codec ID : S_TEXT/UTF8
Codec ID/Info : UTF-8 Plain Text
Duration : 2 h 27 min
Bit rate : 51 b/s
Count of elements : 2185
Stream size : 55.7 KiB (0%)
Title : Full
Language : English
Default : No
Forced : No

Text #6
ID : 14
Format : UTF-8
Codec ID : S_TEXT/UTF8
Codec ID/Info : UTF-8 Plain Text
Duration : 2 h 27 min
Bit rate : 51 b/s
Count of elements : 2188
Stream size : 55.8 KiB (0%)
Title : SDH
Language : English
Default : No
Forced : No

Menu
00:00:00.000 : Chapter 01
00:04:06.079 : Chapter 02
00:13:44.782 : Chapter 03
00:22:39.358 : Chapter 04
00:30:47.637 : Chapter 05
00:39:00.630 : Chapter 06
00:47:42.485 : Chapter 07
00:54:20.799 : Chapter 08
01:03:01.194 : Chapter 09
01:11:51.557 : Chapter 10
01:20:40.294 : Chapter 11
01:30:30.258 : Chapter 12
01:39:38.681 : Chapter 13
01:48:59.867 : Chapter 14
01:53:17.874 : Chapter 15
02:02:57.620 : Chapter 16
02:12:33.445 : Chapter 17
02:16:40.901 : Chapter 18


Релиз: Присоединяйся к:

Zina
Аватара пользователя
 
Раздал: 0 байт
Скачал: 0 байт
Ратио: Inf.
Сообщения: 408
Зарегистрирован: 01 июл 2014, 16:52
  • Торрент
Автор: Zina Хэш: ---
Добавлен: 12 мар 2022, 02:17 Приватный: Нет (DHT включён)
Статус: Проверен
Размер: 7.46 ГБ (8 007 086 291 байт)
Изменил:
---
Скачали: 9312 (Раздающих: 0%)
Причина:
---
Здоровье: 100%
Сидеров: 508 Личеров: 44
Скорость раздачи: 0 байт/сек Скорость скачивания: 0 байт/сек
Последний сидер: 8 дней 2 часа 16 минут 54 секунды назад Последний личер: 8 дней 2 часа 16 минут 54 секунды назад
Для скачивания торрента необходимо зарегистрироваться или войти на трекер.

Форум Статистика

Сейчас этот форум просматривают: нет зарегистрированных пользователей и гости: 4

Настройки

Вернуться в Фильмы / HDTV / HD / Blu-Ray

cron
Ресурс не предоставляет электронные версии произведений, а занимается лишь коллекционированием и каталогизацией ссылок, присылаемых и публикуемых на форуме нашими читателями. Если вы являетесь правообладателем какого-либо представленного материала и не желаете чтобы ссылка на него находилась в нашем каталоге, свяжитесь с нами и мы незамедлительно удалим её. Файлы для обмена на трекере предоставлены пользователями сайта, и администрация не несёт ответственности за их содержание. Просьба не заливать файлы, защищенные авторскими правами, а также файлы нелегального содержания!
tracker_cron