Модераторы: K15, Модераторы, Младшие модераторы

Мать/андроид / Мать против андроидов / Mother/Android (2021) WEB-DL 1080p от селезень | Netflix

Сообщение Basmac4 » 18 янв 2022, 04:07

#777
Информация о фильме
Название: Мать/андроид / Мать против андроидов
Оригинальное название: Mother/Android
Год выхода: 2021
Жанр: Фантастика, триллер, драма

Режиссер: Маттсон Томлин

В ролях: Хлоя Грейс Морец, Стивен Маркус Робертсон, Оскар Уолберг, Рауль Кастильо, Элджи Смит, Лиам Макнил, Оуэн Бурк, Кейт Аваллоне, Джаред Рейнфельдт, Киара Пикардо

О фильме: В день, когда Джорджия узнала, что беременна от своего парня Сэма, началось восстание искусственного интеллекта — прислуживавшие практически в каждом доме андроиды начали уничтожать людей. Почти девять месяцев спустя пара добирается до лесного лагеря военных, где есть защита и врач. Джорджия предлагает остаться, а Сэм хочет, чтобы до родов они успели добраться до Бостона, откуда, по слухам, можно отплыть в безопасную Корею. Но из-за дурацкой выходки Сэма их выгоняют из лагеря.



Страна: США
Студия: 6th & Idaho Productions, Miramax
Продолжительность: 01:50:00
Перевод: Дублированный | Netflix

Качество: WEB-DL 1080p
Видео: MPEG-4 AVC, 1920x1080, 3794 Kbit/s, 23.976 fps
Аудио #01: 48 kHz, E-AC3, 5.1, 640 Kbps | Дублированный | Netflix | RUS |
Аудио #02: 48 kHz, AC3, 5.1, 640 Kbps | Дублированный | Netflix | RUS |
Аудио #03: 48 kHz, E-AC3, 5.1, 256 Kbps | Оригинал | ENG |
Субтитры: Русские (Forced, full), английские



General
Unique ID : 12827136327261326795451758928266884507 (0x9A66AA5FE0537CC496550CDDBC1759B)
Complete name : E:VideoMother.Android.2021.WEB-DL.1080p.seleZen.mkv
Format : Matroska
Format version : Version 4
File size : 4.11 GiB
Duration : 1 h 51 min
Overall bit rate : 5 275 kb/s
Movie name : Mother Android 2021 from seleZen
Encoded date : UTC 2022-01-07 23:40:32
Writing application : mkvmerge v59.0.0 ('Shining Star') 64-bit
Writing library : libebml v1.4.2 + libmatroska v1.6.4

Video
ID : 1
Format : AVC
Format/Info : Advanced Video Codec
Format profile : High@L4
Format settings : CABAC / 4 Ref Frames
Format settings, CABAC : Yes
Format settings, Reference : 4 frames
Codec ID : V_MPEG4/ISO/AVC
Duration : 1 h 50 min
Bit rate : 3 794 kb/s
Width : 1 920 pixels
Height : 1 080 pixels
Display aspect ratio : 16:9
Frame rate mode : Constant
Frame rate : 23.976 (24000/1001) FPS
Color space : YUV
Chroma subsampling : 4:2:0
Bit depth : 8 bits
Scan type : Progressive
Bits/(Pixel*Frame) : 0.076
Stream size : 2.92 GiB (71%)
Language : English
Default : Yes
Forced : No

Audio #1
ID : 2
Format : E-AC-3
Format/Info : Enhanced AC-3
Commercial name : Dolby Digital Plus
Codec ID : A_EAC3
Duration : 1 h 51 min
Bit rate mode : Constant
Bit rate : 640 kb/s
Channel(s) : 6 channels
Channel layout : L R C LFE Ls Rs
Sampling rate : 48.0 kHz
Frame rate : 31.250 FPS (1536 SPF)
Compression mode : Lossy
Stream size : 511 MiB (12%)
Title : Dub [Netflix]
Language : Russian
Service kind : Complete Main
Default : Yes
Forced : Yes

Audio #2
ID : 3
Format : AC-3
Format/Info : Audio Coding 3
Commercial name : Dolby Digital
Codec ID : A_AC3
Duration : 1 h 51 min
Bit rate mode : Constant
Bit rate : 640 kb/s
Channel(s) : 6 channels
Channel layout : L R C LFE Ls Rs
Sampling rate : 48.0 kHz
Frame rate : 31.250 FPS (1536 SPF)
Compression mode : Lossy
Stream size : 511 MiB (12%)
Title : Dub [Netflix]
Language : Russian
Service kind : Complete Main
Default : No
Forced : No

Audio #3
ID : 4
Format : E-AC-3
Format/Info : Enhanced AC-3
Commercial name : Dolby Digital Plus
Codec ID : A_EAC3
Duration : 1 h 50 min
Bit rate mode : Constant
Bit rate : 256 kb/s
Channel(s) : 6 channels
Channel layout : L R C LFE Ls Rs
Sampling rate : 48.0 kHz
Frame rate : 31.250 FPS (1536 SPF)
Compression mode : Lossy
Stream size : 201 MiB (5%)
Title : Original
Language : English
Service kind : Complete Main
Default : No
Forced : No

Text #1
ID : 5
Format : UTF-8
Codec ID : S_TEXT/UTF8
Codec ID/Info : UTF-8 Plain Text
Duration : 1 h 37 min
Bit rate : 0 b/s
Count of elements : 13
Stream size : 437 Bytes (0%)
Title : Forced
Language : Russian
Default : Yes
Forced : Yes

Text #2
ID : 6
Format : UTF-8
Codec ID : S_TEXT/UTF8
Codec ID/Info : UTF-8 Plain Text
Duration : 1 h 49 min
Bit rate : 53 b/s
Count of elements : 1021
Stream size : 43.0 KiB (0%)
Title : Full
Language : Russian
Default : No
Forced : No

Text #3
ID : 7
Format : UTF-8
Codec ID : S_TEXT/UTF8
Codec ID/Info : UTF-8 Plain Text
Duration : 1 h 43 min
Bit rate : 42 b/s
Count of elements : 1168
Stream size : 31.9 KiB (0%)
Title : Full
Language : English
Default : No
Forced : No

Text #4
ID : 8
Format : UTF-8
Codec ID : S_TEXT/UTF8
Codec ID/Info : UTF-8 Plain Text
Duration : 1 h 44 min
Bit rate : 51 b/s
Count of elements : 1586
Stream size : 39.0 KiB (0%)
Title : SDH
Language : English
Default : No
Forced : No
Basmac4
Аватара пользователя
 
Раздал: 1.98 ТБ
Скачал: 3.04 ГБ
Ратио: 668.049
Сообщения: 127
Зарегистрирован: 01 июл 2014, 16:45
  • Торрент
Автор: Basmac4 Хэш: ---
Добавлен: 18 янв 2022, 04:07 Приватный: Нет (DHT включён)
Статус: Проверен
Размер: 4.11 ГБ (4 415 447 979 байт)
Изменил:
---
Скачали: 6231 (Раздающих: 0%)
Причина:
---
Здоровье: 100%
Сидеров: 201 Личеров: 23
Скорость раздачи: 0 байт/сек Скорость скачивания: 0 байт/сек
Последний сидер: 1 месяц 23 дня 14 часов 17 минут 16 секунд назад Последний личер: 1 месяц 23 дня 14 часов 17 минут 16 секунд назад
Для скачивания торрента необходимо зарегистрироваться или войти на трекер.

Форум Статистика

Сейчас этот форум просматривают: нет зарегистрированных пользователей и гости: 5

Настройки

Вернуться в Фильмы / HDTV / HD / Blu-Ray

cron
Ресурс не предоставляет электронные версии произведений, а занимается лишь коллекционированием и каталогизацией ссылок, присылаемых и публикуемых на форуме нашими читателями. Если вы являетесь правообладателем какого-либо представленного материала и не желаете чтобы ссылка на него находилась в нашем каталоге, свяжитесь с нами и мы незамедлительно удалим её. Файлы для обмена на трекере предоставлены пользователями сайта, и администрация не несёт ответственности за их содержание. Просьба не заливать файлы, защищенные авторскими правами, а также файлы нелегального содержания!
tracker_cron