Модераторы: K15, Модераторы, Младшие модераторы

Поколение Вояджер / Voyagers (2021) HDRip-AVC от ExKinoRay | D, P

Сообщение Basmac4 » 18 янв 2022, 04:07


Поколение Вояджер / Voyagers



#777
Информация о фильме:
Название: Поколение Вояджер
Оригинальное название: Voyagers
Год выхода: 2021
Жанр: Фантастика, драма, триллер

Режиссер: Нил Бёргер

В ролях: Колин Фаррелл, Тай Шеридан, Айзек Хемпстед-Райт, Лили-Роуз Депп, Финн Уайтхед, Мэдисон Ху, Чант Адамс, Вивейк Калра, Арчи Рено, Куинтесса Суинделл, Вероника Фалькон, Арчи Мадекве, Верн Ли, Эйприл Грэйс, Лора Дрейфус

Описание:
Из-за глобального потепления в 2063 году был запущен проект выживания человечества. Из биоматериала специально отобранных доноров в пробирках была выращена группа детей. Они не покидали стен лаборатории — жили там и обучались под неустанным контролем, чтобы не привыкать к солнечному свету и открытым пространствам. Совсем ещё молодыми людьми они отправляются в путешествие к далёкой подходящей для жизни планете, но долетят дотуда в лучшем случае их внуки. Вскоре друзья Зак и Кристофер выясняют, что в витаминном напитке, который вся команда, за исключением сопровождающего их взрослого, принимает каждый день, содержится вещество, делающее их спокойными и послушными.



Страна: США, Чехия, Румыния, Великобритания
Студия: AGC Studios, Fibonacci Films, Freecs Films, Icon Films, Ingenious Media, Not A Bene Productions, Stillking Fil, Thunder Road
Продолжительность: 01:48:07
Перевод: Профессиональный (полное дублирование) - CPI Films , Профессиональный (многоголосый, закадровый) - HDRezka Studio



Информация о файле:
Кодек: AVC
Формат: MKV
Качество: HDRip-AVC
Видео: MPEG-4 AVC, 1024x428, 23.976 fps, 1850 kb/s
Аудио RU: AC3, 6 ch, 48 kHz, 448 kbps | СиПиАй Филмз / CPI Films
Аудио RU: AC3, 6 ch, 48 kHz, 448 kbps | HDRezka Studio
Аудио EN: AC3, 6 ch, 48 kHz, 448 kbps | Оригинал
Субтитры: Русские (Forced, full), английские




x264 info: frame I:1332 Avg QP:11.45 size: 43690
x264 info: frame P:33897 Avg QP:12.73 size: 20681
x264 info: frame B:120315 Avg QP:14.01 size: 6095
General
Unique ID : 144237176230233103123325086577369410521 (0x6C8311D6852338AA0E19B0C105C5EBD9)
Complete name : D:uTorrentРипы wolf1245Voyagers.2021.DUB.MVO.CPIFILM.HDREZKA.HDRip-AVC.[wolf1245.ExKinoRay].mkv
Format : Matroska
Format version : Version 4
File size : 2.41 GiB
Duration : 1 h 48 min
Overall bit rate : 3 189 kb/s
Movie name : Voyagers.2021.DUB.MVO.CPIFILM.HDREZKA.HDRip-AVC.[wolf1245.ExKinoRay]
Encoded date : UTC 2022-01-07 20:24:54
Writing application : mkvmerge v64.0.0 ('Willows') 64-bit
Writing library : libebml v1.4.2 + libmatroska v1.6.4

Video
ID : 1
Format : AVC
Format/Info : Advanced Video Codec
Format profile : High@L4.1
Format settings : CABAC / 10 Ref Frames
Format settings, CABAC : Yes
Format settings, Reference frames : 10 frames
Codec ID : V_MPEG4/ISO/AVC
Duration : 1 h 48 min
Bit rate : 1 850 kb/s
Width : 1 024 pixels
Height : 428 pixels
Display aspect ratio : 2.40:1
Frame rate mode : Constant
Frame rate : 23.976 (24000/1001) FPS
Color space : YUV
Chroma subsampling : 4:2:0
Bit depth : 8 bits
Scan type : Progressive
Bits/(Pixel*Frame) : 0.176
Stream size : 1.39 GiB (58%)
Title : -=[wolf1245.ExKinoRay]=-
Writing library : x264 core 163 r3060 5db6aa6
Encoding settings : cabac=1 / ref=10 / deblock=1:-3:-3 / analyse=0x3:0x133 / me=umh / subme=10 / psy=1 / psy_rd=1.00:0.00 / mixed_ref=1 / me_range=48 / chroma_me=1 / trellis=2 / 8x8dct=1 / cqm=0 / deadzone=21,11 / fast_pskip=1 / chroma_qp_offset=-2 / threads=10 / lookahead_threads=2 / sliced_threads=0 / nr=0 / decimate=0 / interlaced=0 / bluray_compat=0 / constrained_intra=0 / bframes=10 / b_pyramid=2 / b_adapt=2 / b_bias=0 / direct=3 / weightb=1 / open_gop=0 / weightp=2 / keyint=240 / keyint_min=24 / scenecut=40 / intra_refresh=0 / rc_lookahead=60 / rc=2pass / mbtree=0 / bitrate=1850 / ratetol=1.0 / qcomp=0.60 / qpmin=0 / qpmax=69 / qpstep=4 / cplxblur=20.0 / qblur=0.5 / vbv_maxrate=50000 / vbv_bufsize=62500 / nal_hrd=none / filler=0 / ip_ratio=1.40 / pb_ratio=1.30 / aq=1:1.00
Language : English
Default : Yes
Forced : No

Audio #1
ID : 2
Format : AC-3
Format/Info : Audio Coding 3
Commercial name : Dolby Digital
Codec ID : A_AC3
Duration : 1 h 48 min
Bit rate mode : Constant
Bit rate : 448 kb/s
Channel(s) : 6 channels
Channel layout : L R C LFE Ls Rs
Sampling rate : 48.0 kHz
Frame rate : 31.250 FPS (1536 SPF)
Compression mode : Lossy
Stream size : 346 MiB (14%)
Title : DUB | CPI Films | RUS
Language : Russian
Service kind : Complete Main
Default : Yes
Forced : Yes

Audio #2
ID : 3
Format : AC-3
Format/Info : Audio Coding 3
Commercial name : Dolby Digital
Codec ID : A_AC3
Duration : 1 h 48 min
Bit rate mode : Constant
Bit rate : 448 kb/s
Channel(s) : 6 channels
Channel layout : L R C LFE Ls Rs
Sampling rate : 48.0 kHz
Frame rate : 31.250 FPS (1536 SPF)
Compression mode : Lossy
Stream size : 346 MiB (14%)
Title : MVO | HDRezka Studio | RUS
Language : Russian
Service kind : Complete Main
Default : No
Forced : No

Audio #3
ID : 4
Format : AC-3
Format/Info : Audio Coding 3
Commercial name : Dolby Digital
Codec ID : A_AC3
Duration : 1 h 48 min
Bit rate mode : Constant
Bit rate : 448 kb/s
Channel(s) : 6 channels
Channel layout : L R C LFE Ls Rs
Sampling rate : 48.0 kHz
Frame rate : 31.250 FPS (1536 SPF)
Compression mode : Lossy
Stream size : 346 MiB (14%)
Title : Original | ENG
Language : English
Service kind : Complete Main
Default : Yes
Forced : No

Text #1
ID : 5
Format : UTF-8
Codec ID : S_TEXT/UTF8
Codec ID/Info : UTF-8 Plain Text
Duration : 1 h 36 min
Bit rate : 1 b/s
Count of elements : 28
Stream size : 1.28 KiB (0%)
Title : Forced [HDRezka Studio]
Language : Russian
Default : Yes
Forced : Yes

Text #2
ID : 6
Format : UTF-8
Codec ID : S_TEXT/UTF8
Codec ID/Info : UTF-8 Plain Text
Duration : 1 h 35 min
Bit rate : 63 b/s
Count of elements : 940
Stream size : 44.8 KiB (0%)
Title : Full [FOCS]
Language : Russian
Default : No
Forced : No

Text #3
ID : 7
Format : UTF-8
Codec ID : S_TEXT/UTF8
Codec ID/Info : UTF-8 Plain Text
Duration : 1 h 35 min
Bit rate : 36 b/s
Count of elements : 925
Stream size : 25.4 KiB (0%)
Title : Full
Language : English
Default : No
Forced : No

Menu
00:00:00.000 : :Глава 01
00:06:04.155 : :Глава 02
00:12:16.778 : :Глава 03
00:19:22.077 : :Глава 04
00:28:56.318 : :Глава 05
00:36:56.339 : :Глава 06
00:42:26.085 : :Глава 07
00:47:20.629 : :Глава 08
00:52:45.412 : :Глава 09
00:57:52.219 : :Глава 10
01:03:59.127 : :Глава 11
01:13:48.090 : :Глава 12
01:19:08.410 : :Глава 13
01:26:47.160 : :Глава 14
01:34:17.527 : :Глава 15
01:38:14.555 : :Глава 16



Автор релиза:
Basmac4
Аватара пользователя
 
Раздал: 1.98 ТБ
Скачал: 3.04 ГБ
Ратио: 668.049
Сообщения: 127
Зарегистрирован: 01 июл 2014, 16:45
  • Торрент
Автор: Basmac4 Хэш: ---
Добавлен: 18 янв 2022, 04:07 Приватный: Нет (DHT включён)
Статус: Проверен
Размер: 2.41 ГБ (2 586 246 990 байт)
Изменил:
---
Скачали: 2037 (Раздающих: 0%)
Причина:
---
Здоровье: 100%
Сидеров: 141 Личеров: 0
Скорость раздачи: 0 байт/сек Скорость скачивания: 0 байт/сек
Последний сидер: 1 месяц 23 дня 31 минуту 6 секунд назад Последний личер: Нет
Для скачивания торрента необходимо зарегистрироваться или войти на трекер.

Форум Статистика

Сейчас этот форум просматривают: нет зарегистрированных пользователей и гости: 3

Настройки

Вернуться в Фильмы / HDTV / HD / Blu-Ray

cron
Ресурс не предоставляет электронные версии произведений, а занимается лишь коллекционированием и каталогизацией ссылок, присылаемых и публикуемых на форуме нашими читателями. Если вы являетесь правообладателем какого-либо представленного материала и не желаете чтобы ссылка на него находилась в нашем каталоге, свяжитесь с нами и мы незамедлительно удалим её. Файлы для обмена на трекере предоставлены пользователями сайта, и администрация не несёт ответственности за их содержание. Просьба не заливать файлы, защищенные авторскими правами, а также файлы нелегального содержания!
tracker_cron