Модераторы: K15, Младшие модераторы, Модераторы

Чёрная Вдова / Black Widow (Кейт Шортланд) [2021, Фантастика, боевик, приключения, HDRip-AVC / HDRezka Studio]

Сообщение Sovetnik » 06 сен 2021, 03:47

#777

Чёрная Вдова / Black Widow


Информация о фильме
Название: Чёрная Вдова
Оригинальное название: Black Widow
Год выхода: 2021
Страна: США
Студия: Marvel Studios
Продолжительность: 02:13:46
Перевод: Профессиональный многоголосый | HDRezka Studio
Жанр: Фантастика, боевик, приключения, комикс, супергерой

Режиссер: Кейт Шортланд

В ролях: Скарлетт Йоханссон, Флоренс Пью, Дэвид Харбор, О. Т. Фагбенли, Ольга Куриленко, Уильям Хёрт, Рэй Уинстон, Рэйчел Вайз, Эвер Андерсон, Виолет Макгроу

О фильме:
Наташе Романофф предстоит лицом к лицу встретиться со своим прошлым. Чёрной Вдове придется вспомнить о том, что было в её жизни задолго до присоединения к команде Мстителей, и узнать об опасном заговоре, в который оказываются втянуты её старые знакомые — Елена, Алексей (известный как Красный Страж) и Мелина.



Файл
Формат: Matroska
Качество: HDRip-AVC
Видео: 1024x428 at 23.976 fps, x264@L4.1, ~1887 kbps, 0.180 bpp
Аудио: AC3, 6 ch, 448 Кбит/с - | Русский | -
Субтитры: Русские (Forced, full), английские
Формат субтитров: softsub (SRT)




x264 [info]: frame I:1698 Avg QP:16.32 size: 59598
x264 [info]: frame P:50697 Avg QP:18.93 size: 19756
x264 [info]: frame B:140055 Avg QP:20.76 size: 5644
x264 [info]: consecutive B-frames: 4.8% 7.7% 11.4% 22.6% 18.1% 26.4% 5.1% 1.8% 1.7% 0.1% 0.0% 0.0% 0.0% 0.0% 0.4%

General
Unique ID : 96233815647388319992489268499646517528 (0x4865F56ECAA1CF5F13D95DC6DA181118)
Complete name : E:ВИДЕО_2Чёрная Вдова.(2021).HDRip-AVC.[-=DoMiNo=-].mkv
Format : Matroska
Format version : Version 4
File size : 2.18 GiB
Duration : 2 h 13 min
Overall bit rate : 2 337 kb/s
Movie name : Чёрная Вдова.(2021).HDRip-AVC.[-=DoMiNo=-]
Encoded date : UTC 2021-09-05 20:15:49
Writing application : mkvmerge v61.0.0 ('So') 64-bit
Writing library : libebml v1.4.2 + libmatroska v1.6.4
Cover : Yes
Attachments : Cover.jpg / Cover 2.jpg

Video
ID : 1
Format : AVC
Format/Info : Advanced Video Codec
Format profile : High@L4.1
Format settings : CABAC / 12 Ref Frames
Format settings, CABAC : Yes
Format settings, Reference : 12 frames
Codec ID : V_MPEG4/ISO/AVC
Duration : 2 h 13 min
Bit rate : 1 887 kb/s
Width : 1 024 pixels
Height : 428 pixels
Display aspect ratio : 2.40:1
Frame rate mode : Constant
Frame rate : 23.976 (24000/1001) FPS
Color space : YUV
Chroma subsampling : 4:2:0
Bit depth : 8 bits
Scan type : Progressive
Bits/(Pixel*Frame) : 0.180
Stream size : 1.76 GiB (81%)
Title : -=DoMiNo=-
Writing library : x264 core 164 r3065+55M 280faca t_mod_New [(8 & 10)-bit@all X86_64]
Encoding settings : cabac=1 / ref=12 / deblock=1:-3:-2 / analyse=0x3:0x133 / me=umh / subme=10 / psy=1 / fade_compensate=0.00 / psy_rd=1.00:0.05 / mixed_ref=1 / me_range=32 / chroma_me=1 / trellis=2 / 8x8dct=1 / cqm=0 / deadzone=21,11 / fast_pskip=0 / chroma_qp_offset=-3 / threads=24 / lookahead_threads=3 / sliced_threads=0 / nr=0 / decimate=0 / interlaced=0 / bluray_compat=0 / constrained_intra=0 / fgo=0 / bframes=14 / b_pyramid=2 / b_adapt=2 / b_bias=0 / direct=3 / weightb=1 / open_gop=0 / weightp=2 / keyint=240 / keyint_min=23 / scenecut=40 / intra_refresh=0 / rc_lookahead=60 / rc=2pass / mbtree=0 / bitrate=1887 / ratetol=1.0 / qcomp=0.70 / qpmin=0:0:0 / qpmax=69:69:69 / qpstep=4 / cplxblur=20.0 / qblur=0.5 / vbv_maxrate=50000 / vbv_bufsize=62500 / nal_hrd=none / filler=0 / ip_ratio=1.22 / pb_ratio=1.30 / aq=3:0.80 / aq-sensitivity=10.00 / aq-factor=1.00:1.00:1.00 / aq2=0 / aq3=0
Language : English
Default : Yes
Forced : No
Color range : Limited
Color primaries : BT.709
Matrix coefficients : BT.709

Audio
ID : 2
Format : AC-3
Format/Info : Audio Coding 3
Commercial name : Dolby Digital
Codec ID : A_AC3
Duration : 2 h 13 min
Bit rate mode : Constant
Bit rate : 448 kb/s
Channel(s) : 6 channels
Channel layout : L R C LFE Ls Rs
Sampling rate : 48.0 kHz
Frame rate : 31.250 FPS (1536 SPF)
Compression mode : Lossy
Stream size : 429 MiB (19%)
Title : MVO [HDRezka Studio]
Language : Russian
Service kind : Complete Main
Default : Yes
Forced : No

Text #1
ID : 3
Format : UTF-8
Codec ID : S_TEXT/UTF8
Codec ID/Info : UTF-8 Plain Text
Duration : 2 h 11 min
Bit rate : 1 b/s
Count of elements : 44
Stream size : 1.71 KiB (0%)
Title : Forced [HDRezka Studio]
Language : Russian
Default : Yes
Forced : No

Text #2
ID : 4
Format : UTF-8
Codec ID : S_TEXT/UTF8
Codec ID/Info : UTF-8 Plain Text
Duration : 2 h 12 min
Bit rate : 67 b/s
Count of elements : 1282
Stream size : 65.7 KiB (0%)
Title : Full
Language : Russian
Default : No
Forced : No

Text #3
ID : 5
Format : UTF-8
Codec ID : S_TEXT/UTF8
Codec ID/Info : UTF-8 Plain Text
Duration : 2 h 13 min
Bit rate : 46 b/s
Count of elements : 1630
Stream size : 45.7 KiB (0%)
Title : SDH
Language : English
Default : No
Forced : No

Menu
00:00:00.000 : Chapter 01
00:04:55.170 : Chapter 02
00:13:10.081 : Chapter 03
00:16:24.567 : Chapter 04
00:18:41.871 : Chapter 05
00:21:41.634 : Chapter 06
00:25:40.789 : Chapter 07
00:30:06.346 : Chapter 08
00:39:05.468 : Chapter 09
00:44:46.350 : Chapter 10
00:53:25.994 : Chapter 11
01:01:38.153 : Chapter 12
01:07:46.271 : Chapter 13
01:11:40.671 : Chapter 14
01:17:48.789 : Chapter 15
01:27:19.234 : Chapter 16
01:33:33.441 : Chapter 17
01:37:37.477 : Chapter 18
01:41:18.656 : Chapter 19
01:45:37.873 : Chapter 20
01:51:41.653 : Chapter 21
01:57:09.105 : Chapter 22
02:01:59.687 : Chapter 23
02:04:25.458 : Chapter 24

***Релиз от: -=DoMiNo=-
Sovetnik
Аватара пользователя
 
Раздал: 32.14 ТБ
Скачал: 13.23 ГБ
Ратио: 2488.285
Сообщения: 1875
Зарегистрирован: 13 фев 2014, 05:19
  • Торрент
Автор: Sovetnik Хэш: 65534433a77d5216eb96f3357eacbb40c21220a1
Добавлен: 06 сен 2021, 03:47 Приватный: Нет (DHT включён)
Статус: Проверен
Размер: 2.18 ГБ (2 344 843 230 байт)
Изменил:
---
Скачали: 2688 (Раздающих: 0%)
Причина:
---
Здоровье: 100%
Сидеров: 277 Личеров: 37
Скорость раздачи: 0 байт/сек Скорость скачивания: 0 байт/сек
Последний сидер: 20 дней 10 часов 32 минуты 5 секунд назад Последний личер: 20 дней 10 часов 32 минуты 5 секунд назад
Скачать торрент
Скачать торрент
[ Размер 88.15 КБ / Просмотров 22 ]

Форум Статистика

Кто сейчас на конференции

Сейчас этот форум просматривают: Bing [Bot] и гости: 5

  • Похожие торренты
    Ответы
    Просмотры
    Последнее сообщение

Настройки

Вернуться в Фильмы / HDTV / HD / Blu-Ray

cron
Ресурс не предоставляет электронные версии произведений, а занимается лишь коллекционированием и каталогизацией ссылок, присылаемых и публикуемых на форуме нашими читателями. Если вы являетесь правообладателем какого-либо представленного материала и не желаете чтобы ссылка на него находилась в нашем каталоге, свяжитесь с нами и мы незамедлительно удалим её. Файлы для обмена на трекере предоставлены пользователями сайта, и администрация не несёт ответственности за их содержание. Просьба не заливать файлы, защищенные авторскими правами, а также файлы нелегального содержания!