Модераторы: K15, Модераторы, Младшие модераторы

Холодная Луна / Cold Moon (Грифф Ферст) [2016, Ужасы, триллер WEB-DLRip / L]

Сообщение Zina » 07 авг 2020, 21:44

Холодная Луна / Cold Moon


#777

Информация о фильме
Название: Холодная Луна
Оригинальное название: Cold Moon
Год выхода: 2016
Страна: США
Студия: Curmudgeon Films, ALLaborde Productions
Продолжительность: 01:26:54
Перевод: Любительский многоголосый | Синема Ус
Жанр: Ужасы, триллер

Режиссер: Грифф Ферст

В ролях: Томми Вайсо, Кристофер Ллойд, Джош Стюарт, Фрэнк Уэйли, Робби Кей, Кэнди Кларк, Мэдисон Вульф, Честер Рашинг, Рэйчел Брук Смит, Лора Кайюэтт

О фильме:
Пробирающий мистический триллер о загадочном убийстве школьницы-подростка, чье тело было найдено в той же реке, что когда-то унесла жизни ее родителей. Бабушка покойной подозревает двуличного Натана, сына местного богача, недосягаемого для закона. Но когда молчит правосудие, карать за человеческое зло берутся внеземные силы.







Файл
Кодек: XviD
Качество: WEB-DLRip
Видео: 1999 Кбит/с, 720x304, 23.976 кадр/с
Звук: AC3, 48 Гц, 384 Кбит/сек, 6 ch (L C R, + L R, LFE) | MVO | Синема Ус

Общее
Полное имя : D:ТоррентыCold.Moon.2016.1080p.AMZN.WEBRip.DDP5.1.x264-alfaHDHolodnaya.luna.2016.XviD.WEB-DLRip-MediaBit.avi
Формат : AVI
Формат/Информация : Audio Video Interleave
Профиль формата : OpenDML
Размер файла : 1,45 Гбайт
Продолжительность : 1 ч. 26 м.
Общий поток : 2 390 Кбит/сек
Название фильма : / Холодная луна / Cold Moon (2016)
Программа кодирования : Lavf58.20.100

Видео
Идентификатор : 0
Формат : MPEG-4 Visual
Профиль формата : Advanced Simple@L5
Настройки формата : BVOP1 / Custom Matrix
Параметр BVOP формата : 1
Параметр QPel формата : Нет
Параметр GMC формата : Без точки перехода
Параметр матрицы формата : Выборочная
Идентификатор кодека : XVID
Идентификатор кодека/Подсказка : XviD
Продолжительность : 1 ч. 26 м.
Битрейт : 1 999 Кбит/сек
Ширина : 720 пикселей
Высота : 304 пикселя
Соотношение сторон : 2,35:1
Частота кадров : 23,976 (24000/1001) кадра/сек
Цветовое пространство : YUV
Субдискретизация насыщенности : 4:2:0
Битовая глубина : 8 бит
Тип развёртки : Прогрессивная
Метод сжатия : С потерями
Бит/(Пиксели*Кадры) : 0.381
Размер потока : 1,21 Гбайт (83%)
Заголовок : MediaBit
Библиотека кодирования : XviD 67

Аудио
Идентификатор : 1
Формат : AC-3
Формат/Информация : Audio Coding 3
Коммерческое название : Dolby Digital
Идентификатор кодека : 2000
Продолжительность : 1 ч. 26 м.
Вид битрейта : Постоянный
Битрейт : 384 Кбит/сек
Каналы : 6 каналов
Channel layout : L R C LFE Ls Rs
Частота : 48,0 КГц
Частота кадров : 31,250 кадров/сек (1536 SPF)
Битовая глубина : 16 бит
Метод сжатия : С потерями
Размер потока : 239 Мбайт (16%)
Выравнивание : Соединение по промежуткам
Продолжительность промежутка : 32 мс. (0,77 видеокадр)
Заголовок : MVO | Синема Ус / MediaBit
Service kind : Complete Main


Релиз от:
Zina
Аватара пользователя
 
Раздал: 0 байт
Скачал: 0 байт
Ратио: Inf.
Сообщения: 277
Зарегистрирован: 01 июл 2014, 16:52
  • Торрент
Автор: Zina Хэш: ---
Добавлен: 07 авг 2020, 21:44 Приватный: Нет (DHT включён)
Статус: Проверен
Размер: 1.45 ГБ (1 558 151 438 байт)
Изменил:
---
Скачали: 1105 (Раздающих: 0%)
Причина:
---
Здоровье: 100%
Сидеров: 34 Личеров: 2
Скорость раздачи: 0 байт/сек Скорость скачивания: 0 байт/сек
Последний сидер: 11 дней 11 часов 49 минут 53 секунды назад Последний личер: 11 дней 11 часов 49 минут 53 секунды назад
Для скачивания торрента необходимо зарегистрироваться или войти на трекер.

Форум Статистика

Кто сейчас на конференции

Сейчас этот форум просматривают: нет зарегистрированных пользователей и гости: 8

  • Похожие торренты
    Ответы
    Просмотры
    Последнее сообщение

Настройки

Вернуться в Фильмы / HDTV / HD / Blu-Ray

cron
Ресурс не предоставляет электронные версии произведений, а занимается лишь коллекционированием и каталогизацией ссылок, присылаемых и публикуемых на форуме нашими читателями. Если вы являетесь правообладателем какого-либо представленного материала и не желаете чтобы ссылка на него находилась в нашем каталоге, свяжитесь с нами и мы незамедлительно удалим её. Файлы для обмена на трекере предоставлены пользователями сайта, и администрация не несёт ответственности за их содержание. Просьба не заливать файлы, защищенные авторскими правами, а также файлы нелегального содержания!
tracker_cron