Модераторы: K15, Модераторы, Младшие модераторы

7 хранителей гробницы / 7 Guardians of the Tomb (Кимбл Рендалл) [2018, Боевик, приключения, ужасы, WEB-DL 1080p / HDRezka Studio]

Сообщение 7Max7 » 21 май 2020, 12:17

7 хранителей гробницы / 7 Guardians of the Tomb


#777

Информация о фильме
Название: 7 хранителей гробницы
Оригинальное название: 7 Guardians of the Tomb
Год выхода: 2018
Страна: Китай, Австралия, Россия, Таиланд
Студия: Nest Holdings, Sleeping Otters Productions
Продолжительность: 01:30:29
Перевод: Профессиональный многоголосый | HDRezka Studio
Жанр: Боевик, приключения, ужасы

Режиссер: Кимбл Рендалл

В ролях:
Бинбин Ли, Келлан Латс, У Чунь, Келси Грэммер, Стэф Доусон, Ясмин Кассим, Тим Драксл, Шэйн Джейкобсон, Райан Джонсон (II), Джейсон Чонг, Чэнь Цюаньхуа, Гленн Чоу, Уоррен Ли, Кристин Мило

О фильме:
Группа ученых-археологов во время поисков пропавшего коллеги случайно находит вход в древнее подземелье, содержимое которого сулит исследователям мировую известность. Однако в скором времени выясняется, что уникальные подземные сооружения таят в себе смертельную опасность для всякого, кто дерзнет нарушить покой этих мест. Научные изыскания отходят на второй план, ведь теперь главное – выжить и в кратчайшие сроки покинуть старинные лабиринты, превратившиеся в ловушку.



► Без Рекламы!

Файл
Кодек: AVC
Качество: WEB-DL 1080p | Guardians.of.the.Tomb.2018.1080p.WEB-DL.DD5.1.H264-FGT
Видео: MPEG-4 AVC, 4533 Kбит/с, 1904x800, 23.976 кадр/с
Аудио #1: Русский (АС3, 6 ch, 448 Кбит/с, 48.0 KHz) Профессиональный (многоголосый, закадровый) HDRezka Studio
Аудио #2: Английский (АС3, 6 ch, 448 Кбит/с, 48.0 KHz)
Субтитры: Русские (Forced), английские, испанские

Трейлер
Источник: Guardians.of.the.Tomb.2018.1080p.WEB-DL.DD5.1.H264-FGT
General
Unique ID : 221161271596094712438172724239957615908 (0xA6621C8E93F82514B0CDC39C86DDE524)
Complete name : Guardians.of.the.Tomb.2018.WEB-DL.1080p.mkv
Format : Matroska
Format version : Version 4
File size : 3.43 GiB
Duration : 1 h 30 min
Overall bit rate : 5 431 kb/s
Encoded date : UTC 2020-05-14 20:54:42
Writing application : mkvmerge v7.1.0 ('Good Love') 64bit built on Jul 27 2014 13:06:55
Writing library : libebml v1.3.0 + libmatroska v1.4.1

Video
ID : 1
Format : AVC
Format/Info : Advanced Video Codec
Format profile : High@L4
Format settings : CABAC / 5 Ref Frames
Format settings, CABAC : Yes
Format settings, Reference fra : 5 frames
Codec ID : V_MPEG4/ISO/AVC
Duration : 1 h 30 min
Bit rate : 4 533 kb/s
Width : 1 904 pixels
Height : 800 pixels
Display aspect ratio : 2.40:1
Frame rate mode : Constant
Frame rate : 23.976 (24000/1001) FPS
Color space : YUV
Chroma subsampling : 4:2:0
Bit depth : 8 bits
Scan type : Progressive
Bits/(Pixel*Frame) : 0.124
Stream size : 2.87 GiB (83%)
Language : English
Default : Yes
Forced : No
Color range : Limited
Color primaries : BT.709
Transfer characteristics : BT.709
Matrix coefficients : BT.709

Audio #1
ID : 2
Format : AC-3
Format/Info : Audio Coding 3
Commercial name : Dolby Digital
Codec ID : A_AC3
Duration : 1 h 30 min
Bit rate mode : Constant
Bit rate : 448 kb/s
Channel(s) : 6 channels
Channel layout : L R C LFE Ls Rs
Sampling rate : 48.0 kHz
Frame rate : 31.250 FPS (1536 SPF)
Compression mode : Lossy
Stream size : 290 MiB (8%)
Title : MVO | HDRezka Studio
Language : Russian
Service kind : Complete Main
Default : Yes
Forced : No

Audio #2
ID : 3
Format : AC-3
Format/Info : Audio Coding 3
Commercial name : Dolby Digital
Codec ID : A_AC3
Duration : 1 h 30 min
Bit rate mode : Constant
Bit rate : 448 kb/s
Channel(s) : 6 channels
Channel layout : L R C LFE Ls Rs
Sampling rate : 48.0 kHz
Frame rate : 31.250 FPS (1536 SPF)
Compression mode : Lossy
Stream size : 290 MiB (8%)
Language : English
Service kind : Complete Main
Default : No
Forced : No

Text #1
ID : 4
Format : UTF-8
Codec ID : S_TEXT/UTF8
Codec ID/Info : UTF-8 Plain Text
Duration : 1 h 20 min
Bit rate : 0 b/s
Count of elements : 9
Stream size : 533 Bytes (0%)
Title : Forced
Language : Russian
Default : Yes
Forced : No

Text #2
ID : 5
Format : UTF-8
Codec ID : S_TEXT/UTF8
Codec ID/Info : UTF-8 Plain Text
Duration : 1 h 20 min
Bit rate : 42 b/s
Count of elements : 951
Stream size : 25.2 KiB (0%)
Language : English
Default : No
Forced : No

Text #3
ID : 6
Format : UTF-8
Codec ID : S_TEXT/UTF8
Codec ID/Info : UTF-8 Plain Text
Duration : 1 h 20 min
Bit rate : 51 b/s
Count of elements : 998
Stream size : 30.4 KiB (0%)
Language : Spanish
Default : No
Forced : No

Menu
00:00:00.000 : en:Chapter 1
00:09:49.672 : en:Chapter 2
00:19:50.397 : en:Chapter 3
00:30:26.449 : en:Chapter 4
00:41:27.735 : en:Chapter 5
00:51:29.377 : en:Chapter 6
01:02:05.596 : en:Chapter 7
01:10:19.048 : en:Chapter 8
01:23:23.206 : en:Chapter 9
7Max7
Аватара пользователя
 
Раздал: 491.04 ГБ
Скачал: 3 ГБ
Ратио: 163.468
Сообщения: 284
Зарегистрирован: 14 фев 2014, 18:28
  • Торрент
Автор: 7Max7 Хэш: ---
Добавлен: 21 май 2020, 12:16 Приватный: Нет (DHT включён)
Статус: Проверен
Размер: 3.43 ГБ (3 686 557 835 байт)
Изменил:
---
Скачали: 2527 (Раздающих: 0%)
Причина:
---
Здоровье: 100%
Сидеров: 556 Личеров: 105
Скорость раздачи: 0 байт/сек Скорость скачивания: 0 байт/сек
Последний сидер: 19 дней 5 часов 2 минуты 39 секунд назад Последний личер: 19 дней 5 часов 2 минуты 39 секунд назад
Для скачивания торрента необходимо зарегистрироваться или войти на трекер.

Форум Статистика

Кто сейчас на конференции

Сейчас этот форум просматривают: нет зарегистрированных пользователей и гости: 10

  • Похожие торренты
    Ответы
    Просмотры
    Последнее сообщение

Настройки

Вернуться в Фильмы / HDTV / HD / Blu-Ray

Ресурс не предоставляет электронные версии произведений, а занимается лишь коллекционированием и каталогизацией ссылок, присылаемых и публикуемых на форуме нашими читателями. Если вы являетесь правообладателем какого-либо представленного материала и не желаете чтобы ссылка на него находилась в нашем каталоге, свяжитесь с нами и мы незамедлительно удалим её. Файлы для обмена на трекере предоставлены пользователями сайта, и администрация не несёт ответственности за их содержание. Просьба не заливать файлы, защищенные авторскими правами, а также файлы нелегального содержания!
tracker_cron