Модераторы: K15, Модераторы, Младшие модераторы

Ведьмина гора / Race to Witch Mountain ( Энди Фикмен /Andy Fickman) [2009, Фантастика, триллер, комедия, приключения, семейный, WEB-DLRip-AVC / D / Open Matte]

Сообщение 7Max7 » 17 май 2020, 21:06

Ведьмина гора / Race to Witch Mountain


#777

Информация о фильме
Название: Ведьмина гора
Оригинальное название: Race to Witch Mountain
Год выхода: 2009
Страна: США
Студия: Gunn Films, Walt Disney Pictures
Продолжительность: 01:38:31
Перевод: Профессиональный (полное дублирование)
Жанр: Фантастика, триллер, комедия, приключения, семейный

Режиссер: Энди Фикмен /Andy Fickman

В ролях:
Дуэйн Джонсон, Анна-София Робб, Александр Людвиг, Карла Гуджино, Том Эверетт Скотт, Киаран Хайндз, Гэрри Маршалл, Ким Ричардс, Айк Айсенманн, Том Вудрафф-мл., Чич Марин, Кристин Лакин, Крис Маркетт, Мередит Сейленджер, Роберт Торти, Джон Кэссир, Арло Хэмпхилл, Бренди Гудбред, Боб Кленденин, Сюзанн Кралл, Плезант Уэйн, Деннис Хэйден, Ли Рехерман, Ланетта Фюджит, Омар Джей Дорси, Франклин Руэл, Брэндон Скотт Миллер, Дейв Энгфер, Пол Нигро, Джек Истленд

О фильме:
Когда в машину разочарованного в жизни лос-анджелесского таксиста садятся двое подростков, он поначалу решает, что ребята всего лишь сбежали из дома. Но вскоре оказывается, что выглядящие как земные дети мальчик и девочка на самом деле — пришельцы из космоса, и спасаются они от неприятностей куда более серьезных, чем строгие родители. Волей-неволей водителю приходится помогать новым знакомым не только победить их могущественного врага, но и спасти нашу Землю.



Файл
Формат: MKV
Качество: WEB-DLRip-AVC
Видео: MPEG-4 AVC, 704x396, - 980 Кбит/с
Аудио: AAC-HE, 2 ch, - 76 Кбит/с
Субтитры: Русские (forced, full), английские

Общее
Уникальный идентификатор : 152034628448508524433902952620892110574 (0x7260CDE9F71D3FB14F17E31C34EC3EEE)
Полное имя : D:MOVIESVedmina.Gora.2009.Open.Matte.WEB-DLRip-AVC.ExKinoRay.mkv
Формат : Matroska
Версия формата : Version 4
Размер файла : 746 Мбайт
Продолжительность : 1 ч. 38 м.
Общий поток : 1 058 Кбит/сек
Дата кодирования : UTC 2020-05-17 11:17:42
Программа кодирования : mkvmerge v45.0.0 ('Heaven in Pennies') 64-bit
Библиотека кодирования : libebml v1.3.10 + libmatroska v1.5.2

Видео
Идентификатор : 1
Формат : AVC
Формат/Информация : Advanced Video Codec
Профиль формата : High@L4.1
Настройки формата : CABAC / 11 Ref Frames
Параметр CABAC формата : Да
Параметр RefFrames формата : 11 кадров
Идентификатор кодека : V_MPEG4/ISO/AVC
Продолжительность : 1 ч. 38 м.
Битрейт : 980 Кбит/сек
Ширина : 704 пикселя
Высота : 396 пикселей
Соотношение сторон : 16:9
Режим частоты кадров : Постоянный
Частота кадров : 23,976 (24000/1001) кадра/сек
Цветовое пространство : YUV
Субдискретизация насыщенности : 4:2:0
Битовая глубина : 8 бит
Тип развёртки : Прогрессивная
Бит/(Пиксели*Кадры) : 0.147
Размер потока : 690 Мбайт (93%)
Библиотека кодирования : x264 core 159 r2991 1771b55
Настройки программы : cabac=1 / ref=11 / deblock=1:-3:-3 / analyse=0x3:0x133 / me=umh / subme=10 / psy=1 / psy_rd=1.05:0.14 / mixed_ref=1 / me_range=32 / chroma_me=1 / trellis=2 / 8x8dct=1 / cqm=0 / deadzone=21,11 / fast_pskip=0 / chroma_qp_offset=-3 / threads=6 / lookahead_threads=1 / sliced_threads=0 / nr=0 / decimate=0 / interlaced=0 / bluray_compat=0 / constrained_intra=0 / bframes=12 / b_pyramid=2 / b_adapt=2 / b_bias=0 / direct=3 / weightb=1 / open_gop=0 / weightp=2 / keyint=240 / keyint_min=23 / scenecut=40 / intra_refresh=0 / rc_lookahead=40 / rc=2pass / mbtree=1 / bitrate=980 / ratetol=1.0 / qcomp=0.60 / qpmin=0 / qpmax=69 / qpstep=4 / cplxblur=20.0 / qblur=0.5 / ip_ratio=1.40 / aq=3:1.00
Default : Да
Forced : Нет
Цветовой диапазон : Limited
Основные цвета : BT.709
Характеристики трансфера : BT.709
Коэффициенты матрицы : BT.709

Аудио
Идентификатор : 2
Формат : AAC LC SBR
Формат/Информация : Advanced Audio Codec Low Complexity with Spectral Band Replication
Коммерческое название : HE-AAC
Настройки формата : Explicit
Идентификатор кодека : A_AAC-2
Продолжительность : 1 ч. 38 м.
Битрейт : 76,0 Кбит/сек
Каналы : 2 канала
Channel layout : L R
Частота : 48,0 КГц
Частота кадров : 23,438 кадра/сек (2048 SPF)
Метод сжатия : С потерями
Задержка видео : 31 мс.
Размер потока : 53,6 Мбайт (7%)
Язык : Russian
Default : Да
Forced : Нет

Текст #1
Идентификатор : 3
Формат : UTF-8
Идентификатор кодека : S_TEXT/UTF8
Идентификатор кодека/Информация : UTF-8 Plain Text
Продолжительность : 1 ч. 34 м.
Битрейт : 2 бит/сек
Count of elements : 33
Размер потока : 1,70 Кбайт (0%)
Заголовок : Forced
Язык : Russian
Default : Да
Forced : Да

Текст #2
Идентификатор : 4
Формат : UTF-8
Идентификатор кодека : S_TEXT/UTF8
Идентификатор кодека/Информация : UTF-8 Plain Text
Продолжительность : 1 ч. 34 м.
Битрейт : 82 бит/сек
Count of elements : 1055
Размер потока : 57,6 Кбайт (0%)
Заголовок : Full
Язык : Russian
Default : Нет
Forced : Нет

Текст #3
Идентификатор : 5
Формат : UTF-8
Идентификатор кодека : S_TEXT/UTF8
Идентификатор кодека/Информация : UTF-8 Plain Text
Продолжительность : 1 ч. 34 м.
Битрейт : 60 бит/сек
Count of elements : 1150
Размер потока : 41,8 Кбайт (0%)
Заголовок : SDH
Язык : English
Default : Нет
Forced : Нет


7Max7
Аватара пользователя
 
Раздал: 491.04 ГБ
Скачал: 3 ГБ
Ратио: 163.468
Сообщения: 317
Зарегистрирован: 14 фев 2014, 18:28
  • Торрент
Автор: 7Max7 Хэш: ---
Добавлен: 17 май 2020, 21:06 Приватный: Нет (DHT включён)
Статус: Проверен
Размер: 745.51 МБ (781 720 690 байт)
Изменил:
---
Скачали: 2 (Раздающих: 0%)
Причина:
---
Здоровье: 100%
Сидеров: 2 Личеров: 0
Скорость раздачи: 0 байт/сек Скорость скачивания: 0 байт/сек
Последний сидер: 2 месяца 10 дней 14 часов 4 минуты 30 секунд назад Последний личер: Нет
Для скачивания торрента необходимо зарегистрироваться или войти на трекер.

Форум Статистика

Кто сейчас на конференции

Сейчас этот форум просматривают: нет зарегистрированных пользователей и гости: 7

  • Похожие торренты
    Ответы
    Просмотры
    Последнее сообщение

Настройки

Вернуться в Фильмы / HDTV / HD / Blu-Ray

cron
Ресурс не предоставляет электронные версии произведений, а занимается лишь коллекционированием и каталогизацией ссылок, присылаемых и публикуемых на форуме нашими читателями. Если вы являетесь правообладателем какого-либо представленного материала и не желаете чтобы ссылка на него находилась в нашем каталоге, свяжитесь с нами и мы незамедлительно удалим её. Файлы для обмена на трекере предоставлены пользователями сайта, и администрация не несёт ответственности за их содержание. Просьба не заливать файлы, защищенные авторскими правами, а также файлы нелегального содержания!
tracker_cron