Модераторы: K15, Модераторы, Младшие модераторы

Бессмертный / L'immortale (Марко Д'Амор) [2019. Драма, криминал, BDRip 1080p | HDRezka Studio]

Сообщение 7Max7 » 21 мар 2020, 23:15

Бессмертный / L'immortale


#777

Информация о фильме
Название: Бессмертный
Оригинальное название: L'immortale
Год выхода: 2019
Страна: Италия, Германия
Студия: Cattleya, Vision Distribution, Beta Film
Продолжительность: 01:55:25
Перевод: Профессиональный (многоголосый, закадровый) | HDrezka Studio
Жанр: Драма, криминал

Режиссер: Марко Д'Амор

В ролях:
Марко Д'Амор, Джузеппе Айелло, Сальваторе Д'Онофрио, Джанни Вастарелла, Марианна Робустелли, Мартина Аттанасио, Дженнаро Ди Коландреа, Нелло Маския, Алексей Гуськов, Нунцио Коппола

О фильме:
Тело Чиро тонет в тёмных водах Неаполитанского залива. И по мере того, как он погружается всё глубже и глубже, появляются воспоминания. Приглушенные водой звуки сливаются с криками бегущих людей. Это 1980 год, земля дрожит, здание рушится, но под обломками можно услышать крик новорожденного ребенка. Десять лет спустя мы обнаруживаем, что новорожденный выжил на улицах Неаполя и он уже чей-то сын. Яркие воспоминания о криминальном прошлом, которое сделало его таким, какой он есть: Чиро Ди Марцио 'Бессмертным'.




Файл
Качество: BDRip 1080p | HDRezka Studio
Видео: AVC/H.264, 1920x804, ~9444 Кbps, 24 fps
Звук:
Аудио 1: AC3, 6 ch, 448 Kbps - Русский
Аудио 2: AC3, 6 ch, 640 Kbps - Итальянский
Субтитры: Английские (Full)

Общее
Уникальный идентификатор : 105171096348741579344317307854343131753 (0x4F1F37644CD18D49ED8B9973CDD05269)
Полное имя : The Immortal.2019.BDRip.1080p.W.mkv
Формат : Matroska
Версия формата : Version 4
Размер файла : 8,49 Гбайт
Продолжительность : 1 ч. 55 м.
Общий поток : 10,5 Мбит/сек
Название фильма : L'immortale.2019.BDRip.1080p.W
Дата кодирования : UTC 2020-03-21 08:04:54
Программа кодирования : mkvmerge v23.0.0 ('The Bride Said No') 64-bit
Библиотека кодирования : libebml v1.3.6 + libmatroska v1.4.9

Видео
Идентификатор : 1
Формат : AVC
Формат/Информация : Advanced Video Codec
Профиль формата : High@L4.1
Настройки формата : CABAC / 5 Ref Frames
Параметр CABAC формата : Да
Параметр RefFrames формата : 5 кадров
Идентификатор кодека : V_MPEG4/ISO/AVC
Продолжительность : 1 ч. 55 м.
Битрейт : 9444 Кбит/сек
Ширина : 1920 пикселей
Высота : 804 пикселя
Соотношение сторон : 2,40:1
Режим частоты кадров : Постоянный
Частота кадров : 24,000 кадра/сек
Цветовое пространство : YUV
Субдискретизация насыщенности : 4:2:0
Битовая глубина : 8 бит
Тип развёртки : Прогрессивная
Бит/(Пиксели*Кадры) : 0.255
Размер потока : 7,61 Гбайт (90%)
Заголовок : M@HD
Библиотека кодирования : x264 core 157 r2969 d4099dd
Настройки программы : cabac=1 / ref=5 / deblock=1:-3:-3 / analyse=0x3:0x133 / me=umh / subme=10 / psy=1 / psy_rd=1.05:0.00 / mixed_ref=1 / me_range=24 / chroma_me=1 / trellis=2 / 8x8dct=1 / cqm=0 / deadzone=21,11 / fast_pskip=0 / chroma_qp_offset=-2 / threads=6 / lookahead_threads=1 / sliced_threads=0 / nr=0 / decimate=1 / interlaced=0 / bluray_compat=0 / constrained_intra=0 / bframes=3 / b_pyramid=2 / b_adapt=2 / b_bias=0 / direct=3 / weightb=1 / open_gop=0 / weightp=2 / keyint=230 / keyint_min=23 / scenecut=40 / intra_refresh=0 / rc_lookahead=50 / rc=2pass / mbtree=0 / bitrate=9444 / ratetol=1.0 / qcomp=0.60 / qpmin=0 / qpmax=69 / qpstep=4 / cplxblur=20.0 / qblur=0.5 / vbv_maxrate=30000 / vbv_bufsize=35000 / nal_hrd=none / filler=0 / ip_ratio=1.30 / pb_ratio=1.20 / aq=1:1.00
Язык : Italian
Default : Да
Forced : Нет

Аудио #1
Идентификатор : 2
Формат : AC-3
Формат/Информация : Audio Coding 3
Коммерческое название : Dolby Digital
Идентификатор кодека : A_AC3
Продолжительность : 1 ч. 55 м.
Вид битрейта : Постоянный
Битрейт : 448 Кбит/сек
Каналы : 6 каналов
ChannelLayout : L R C LFE Ls Rs
Частота : 48,0 КГц
Частота кадров : 31,250 кадров/сек (1536 SPF)
Метод сжатия : С потерями
Размер потока : 370 Мбайт (4%)
Заголовок : MVO | HDrezka Studio
Язык : Russian
ServiceKind : Complete Main
Default : Да
Forced : Нет

Аудио #2
Идентификатор : 3
Формат : AC-3
Формат/Информация : Audio Coding 3
Коммерческое название : Dolby Digital
Идентификатор кодека : A_AC3
Продолжительность : 1 ч. 55 м.
Вид битрейта : Постоянный
Битрейт : 640 Кбит/сек
Каналы : 6 каналов
ChannelLayout : L R C LFE Ls Rs
Частота : 48,0 КГц
Частота кадров : 31,250 кадров/сек (1536 SPF)
Метод сжатия : С потерями
Размер потока : 528 Мбайт (6%)
Язык : Italian
ServiceKind : Complete Main
Default : Нет
Forced : Нет

Текст
Идентификатор : 4
Формат : UTF-8
Идентификатор кодека : S_TEXT/UTF8
Идентификатор кодека/Информация : UTF-8 Plain Text
Продолжительность : 1 ч. 48 м.
Битрейт : 25 бит/сек
ElementCount : 720
Размер потока : 20,2 Кбайт (0%)
Язык : English
Default : Нет
Forced : Нет

Меню
00:00:00.000 : en:The Earthquake
00:05:13.792 : en:Another Chance
00:16:08.375 : en:New Business
00:25:17.500 : en:The First Years
00:33:16.500 : en:Business Matter
00:42:13.208 : en:One Of The Family
00:48:12.375 : en:The Right Group
00:57:29.625 : en:The Courage To Change
01:09:10.167 : en:Irreconcilable Worlds
01:15:57.500 : en:Violent Retaliation
01:31:22.208 : en:Resolution
01:46:55.167 : en:The Encounter

7Max7
Аватара пользователя
 
Раздал: 491.04 ГБ
Скачал: 3 ГБ
Ратио: 163.468
Сообщения: 284
Зарегистрирован: 14 фев 2014, 18:28
  • Торрент
Автор: 7Max7 Хэш: ---
Добавлен: 21 мар 2020, 23:14 Приватный: Нет (DHT включён)
Статус: Проверен
Размер: 8.49 ГБ (9 118 213 944 байт)
Изменил:
---
Скачали: 1731 (Раздающих: 0%)
Причина:
---
Здоровье: 100%
Сидеров: 533 Личеров: 282
Скорость раздачи: 0 байт/сек Скорость скачивания: 0 байт/сек
Последний сидер: 1 месяц 7 дней 2 часа 5 минут 47 секунд назад Последний личер: 1 месяц 7 дней 2 часа 5 минут 47 секунд назад
Для скачивания торрента необходимо зарегистрироваться или войти на трекер.

Форум Статистика

Кто сейчас на конференции

Сейчас этот форум просматривают: нет зарегистрированных пользователей и гости: 10

  • Похожие торренты
    Ответы
    Просмотры
    Последнее сообщение

Настройки

Вернуться в Фильмы / HDTV / HD / Blu-Ray

cron
Ресурс не предоставляет электронные версии произведений, а занимается лишь коллекционированием и каталогизацией ссылок, присылаемых и публикуемых на форуме нашими читателями. Если вы являетесь правообладателем какого-либо представленного материала и не желаете чтобы ссылка на него находилась в нашем каталоге, свяжитесь с нами и мы незамедлительно удалим её. Файлы для обмена на трекере предоставлены пользователями сайта, и администрация не несёт ответственности за их содержание. Просьба не заливать файлы, защищенные авторскими правами, а также файлы нелегального содержания!
tracker_cron