Модераторы: K15, Модераторы, Младшие модераторы

Перспектива / Prospect (Кристофер Колдуэлл и др.) [2018, Фантастика, триллер, драма, WEB-DL 1080p | HDRezka Studio]

Сообщение Basmac4 » 30 дек 2019, 17:49

Перспектива / Prospect
«No One Survives Alone»


#777

Год выпуска: 2018
Страна: Канада, США
Производство: Depth of Field, Ground Control, BRON Studios
Перевод: Профессиональный многоголосый | [HDRezka Studio]
Продолжительность: 01:39:45
Субтитры: Английские
Жанр: Фантастика, триллер, драма

Режиссёр: Кристофер Колдуэлл, Зик Эрл

В ролях:
Софи Тэтчер, Джей Дюпласс, Педро Паскаль, Люк Питцрик, Артур Деранло, Андре Ройо, Алекс МакКоли, Даг Доусон, Криста Джонсон, Брайан Гантер

Описание:
Отец с дочерью отправляются на отдалённую планету, где планируют собирать драгоценные камни, сокрытые в глубине лесов. Добыв один, они натыкаются на двух опасных конкурентов. Из-за недопонимания и жадности между ними происходит перестрелка, в результате которой один из встреченных и отец погибают. Теперь, чтобы выжить на враждебной планете с ядовитой атмосферой, девушке придётся сотрудничать с оставшимся в живых незнакомцем.



Реклама: Отсутствует

Качество: WEB-DL 1080p | iTunes Version |
Формат: MKV
Видео кодек: MPEG-4 AVC
Аудио кодек: AC3
Видео: 1912x1028 (1.85:1), 24,000 fps, x264 ~5 204 kbps avg, 0.110 bit/pixel
Аудио #1: 48 kHz, AC3 Dolby Digital, 2 (L,R) ch, ~192.00 kbps avg | RUS (HDRezka Studio)
Аудио #2: 48 kHz, AC3 Dolby Digital, 3/2 (L,C,R,l,r) + LFE ch, ~384.00 kbps avg | ENG

Дата премьеры (мир): 10 марта 2018
Дата премьеры (РФ):
Цифровой релиз:


Релиз от:

Общее
Уникальный идентификатор : 202070523344714765988922561837041367145 (0x98055DFF6D5809ED961B5446283EB869)
Полное имя : F:OlLanDGroupProspect.2018.WEB-DL(1080p).OllanDGroup.mkv
Формат : Matroska
Версия формата : Version 4 / Version 2
Размер файла : 4,03 Гбайт
Продолжительность : 1 ч. 39 м.
Общий поток : 5782 Кбит/сек
Название фильма : Prospect.2018 #TorpedoUK#
Дата кодирования : UTC 2019-03-27 04:17:52
Программа кодирования : mkvmerge v29.0.0 ('Like It Or Not') 64-bit
Библиотека кодирования : libebml v1.3.6 + libmatroska v1.4.9

Видео
Идентификатор : 1
Формат : AVC
Формат/Информация : Advanced Video Codec
Профиль формата : High@L4
Параметр CABAC формата : Да
Параметр ReFrames формата : 4 кадра
Идентификатор кодека : V_MPEG4/ISO/AVC
Продолжительность : 1 ч. 39 м.
Битрейт : 5204 Кбит/сек
Ширина : 1912 пикселей
Высота : 1028 пикселей
Соотношение сторон : 1,85:1
Режим частоты кадров : Постоянный
Частота кадров : 24,000 кадра/сек
Цветовое пространство : YUV
Субдискретизация насыщенности : 4:2:0
Битовая глубина : 8 бит
Тип развёртки : Прогрессивная
Бит/(Пиксели*Кадры) : 0.110
Размер потока : 3,63 Гбайт (90%)
Заголовок : Prospect.2018.1080p.WEB-DL.DD5.1.H264-FGT
Язык : English
Default : Да
Forced : Нет
Цветовой диапазон : Limited
Основные цвета : BT.709
Характеристики трансфера : BT.709
Коэффициенты матрицы : BT.709

Аудио #1
Идентификатор : 2
Формат : AC-3
Формат/Информация : Audio Coding 3
Расширение режима : CM (complete main)
Параметр Endianness формата : Big
Идентификатор кодека : A_AC3
Продолжительность : 1 ч. 39 м.
Вид битрейта : Постоянный
Битрейт : 192 Кбит/сек
Каналы : 2 канала
Расположение каналов : Front: L R
Частота : 48,0 КГц
Частота кадров : 31,250 кадров/сек (1536 spf)
Битовая глубина : 16 бит
Метод сжатия : С потерями
Задержка видео : -42 мс.
Размер потока : 137 Мбайт (3%)
Заголовок : MVO [HDRezka Studio]
Язык : Russian
Default : Да
Forced : Нет

Аудио #2
Идентификатор : 3
Формат : AC-3
Формат/Информация : Audio Coding 3
Расширение режима : CM (complete main)
Параметр Endianness формата : Big
Идентификатор кодека : A_AC3
Продолжительность : 1 ч. 39 м.
Вид битрейта : Постоянный
Битрейт : 384 Кбит/сек
Каналы : 6 каналов
Расположение каналов : Front: L C R, Side: L R, LFE
Частота : 48,0 КГц
Частота кадров : 31,250 кадров/сек (1536 spf)
Битовая глубина : 16 бит
Метод сжатия : С потерями
Задержка видео : -42 мс.
Размер потока : 274 Мбайт (7%)
Заголовок : [Original]
Язык : English
Default : Нет
Forced : Нет

Текст
Идентификатор : 4
Формат : UTF-8
Идентификатор кодека : S_TEXT/UTF8
Идентификатор кодека/Информация : UTF-8 Plain Text
Продолжительность : 1 ч. 33 м.
Битрейт : 32 бит/сек
Count of elements : 765
Размер потока : 22,1 Кбайт (0%)
Заголовок : Full
Язык : English
Default : Нет
Forced : Нет

Меню
00:00:00.000 : en:1
00:02:31.000 : en:2
00:13:07.000 : en:3
00:21:17.000 : en:4
00:33:49.000 : en:5
00:46:57.000 : en:6
00:59:27.000 : en:7
01:08:54.000 : en:8
01:20:40.000 : en:9
01:33:55.000 : en:10




Basmac4
Аватара пользователя
 
Раздал: 1.98 ТБ
Скачал: 3.04 ГБ
Ратио: 668.049
Сообщения: 121
Зарегистрирован: 01 июл 2014, 16:45
  • Торрент
Автор: Basmac4 Хэш: ---
Добавлен: 30 дек 2019, 17:49 Приватный: Нет (DHT включён)
Статус: Проверен
Размер: 4.03 ГБ (4 325 726 320 байт)
Изменил:
---
Скачали: 0 (Раздающих: 0%)
Причина:
---
Здоровье: 0%
Сидеров: 0 Личеров: 0
Скорость раздачи: 0 байт/сек Скорость скачивания: 0 байт/сек
Последний сидер: Нет Последний личер: Нет
Для скачивания торрента необходимо зарегистрироваться или войти на трекер.

Форум Статистика

Кто сейчас на конференции

Сейчас этот форум просматривают: нет зарегистрированных пользователей и гости: 7

  • Похожие торренты
    Ответы
    Просмотры
    Последнее сообщение

Настройки

Вернуться в Фильмы / HDTV / HD / Blu-Ray

Ресурс не предоставляет электронные версии произведений, а занимается лишь коллекционированием и каталогизацией ссылок, присылаемых и публикуемых на форуме нашими читателями. Если вы являетесь правообладателем какого-либо представленного материала и не желаете чтобы ссылка на него находилась в нашем каталоге, свяжитесь с нами и мы незамедлительно удалим её. Файлы для обмена на трекере предоставлены пользователями сайта, и администрация не несёт ответственности за их содержание. Просьба не заливать файлы, защищенные авторскими правами, а также файлы нелегального содержания!
tracker_cron