Модераторы: Модераторы, Младшие модераторы

Анжелика и султан / Angélique et le sultan (Бернар Бордери) [1968, Приключения, мелодрама, BDRip 720p | D, P]

Сообщение Sovetnik » 05 ноя 2019, 00:11

Анжелика и султан / Angélique et le sultan


#777
Анжелика и султан / Angélique et le sultan (Бернар Бордери) [1968, Приключения, мелодрама, BDRip 720p | D, P]
Название: Анжелика и султан
Оригинальное название: Angélique et le sultan
Год выпуска: 1968
Выпущено: Франция, Италия, Германия (ФРГ), CICC, Cinéphonic, Divina-Film, Fono Roma, Francos Films, Gloria-Film GmbH
Продолжительность: 01:37:40
Жанр: Приключения, мелодрама

Режиссер: Бернар Бордери

В ролях:
Мишель Мерсье, Жан-Клод Паскаль, Робер Оссейн, Хельмут Шнайдер, Али Бен Айед, Анри Коган, Роже Пика, Жак Санти, Эрно Криса, Сигхардт Рупп

О фильме:
Отвергнутая Версалем и преследуемая королевскими слугами Анжелика оказывается на Востоке. Захваченная в плен воинами арабского султана, она попадает к нему в гарем, но в очередной раз доказывает свою преданность мужу. Единственное чувство, согревающее сердце Анжелики, это надежда вновь обрести своего возлюбленного....

Экранизация многотомного романа Анн и Сержа Голон "Анжелика".




Качество: BDRip 720p
Размер: 4.65 ГБ
Видео: MPEG-4 AVC, 5144 Kбит/с, 1280x544
Аудио 1: русский, 48 kHz, AC3, 2 ch, 384 kbps avg, [Дублированный, ЦТВ со вставками НТВ]
Аудио 2: русский, 48 kHz, AC3, 2 ch, 384 kbps avg, [Профессиональный многоголосый, НТВ]
Аудио 3: украинский, 48 kHz, AC3, 2 ch, 384 kbps avg, [Профессиональный двухголосый, 1+1]
Аудио 4: французский, 48 kHz, AC3, 2 ch, 384 kbps avg, [Оригинал]
Субтитры: русские

Общее
Уникальный идентификатор : 221505853034306629378215455655314956894 (0xA6A479BBC846AE7AA186D16A92ADA25E)
Полное имя : E:VideoAngelika.5.1968.x264.BDRip.720p.mkv
Формат : Matroska
Версия формата : Version 4 / Version 2
Размер файла : 4,65 Гбайт
Продолжительность : 1 ч. 37 м.
Общий поток : 6816 Кбит/сек
Название фильма : Анжелика и султан / Angélique et le sultan / 1968 / BDRip -- STarankov
Дата кодирования : UTC 2014-01-28 08:18:44
Программа кодирования : mkvmerge v6.6.0 ('The Edge Of The In Between') built on Dec 1 2013 17:55:00
Библиотека кодирования : libebml v1.3.0 + libmatroska v1.4.1

Видео
Идентификатор : 1
Формат : AVC
Формат/Информация : Advanced Video Codec
Профиль формата : High@L4.1
Параметр CABAC формата : Да
Параметр ReFrames формата : 9 кадров
Идентификатор кодека : V_MPEG4/ISO/AVC
Продолжительность : 1 ч. 37 м.
Битрейт : 5144 Кбит/сек
Ширина : 1280 пикселей
Высота : 544 пикселя
Соотношение сторон : 2,35:1
Режим частоты кадров : Постоянный
Частота кадров : 24,000 кадра/сек
Цветовое пространство : YUV
Субдискретизация насыщенности : 4:2:0
Битовая глубина : 8 бит
Тип развёртки : Прогрессивная
Бит/(Пиксели*Кадры) : 0.308
Размер потока : 3,51 Гбайт (75%)
Библиотека кодирования : x264 core 138 r2358 9e941d1
Настройки программы : cabac=1 / ref=9 / deblock=1:-1:-1 / analyse=0x3:0x113 / me=umh / subme=10 / psy=1 / psy_rd=1.00:0.15 / mixed_ref=1 / me_range=24 / chroma_me=1 / trellis=2 / 8x8dct=1 / cqm=0 / deadzone=21,11 / fast_pskip=0 / chroma_qp_offset=-3 / threads=6 / lookahead_threads=1 / sliced_threads=0 / nr=0 / decimate=1 / interlaced=0 / bluray_compat=0 / constrained_intra=0 / bframes=6 / b_pyramid=2 / b_adapt=2 / b_bias=0 / direct=1 / weightb=1 / open_gop=0 / weightp=2 / keyint=230 / keyint_min=23 / scenecut=40 / intra_refresh=0 / rc_lookahead=40 / rc=crf / mbtree=0 / crf=19.0 / qcomp=0.60 / qpmin=0 / qpmax=69 / qpstep=4 / vbv_maxrate=50000 / vbv_bufsize=62500 / crf_max=0.0 / nal_hrd=none / ip_ratio=1.40 / pb_ratio=1.30 / aq=1:1.00
Язык : French
Default : Да
Forced : Нет

Аудио #1
Идентификатор : 2
Формат : AC-3
Формат/Информация : Audio Coding 3
Расширение режима : CM (complete main)
Параметр Endianness формата : Big
Идентификатор кодека : A_AC3
Продолжительность : 1 ч. 37 м.
Вид битрейта : Постоянный
Битрейт : 384 Кбит/сек
Каналы : 2 канала
Расположение каналов : Front: L R
Частота : 48,0 КГц
Битовая глубина : 16 бит
Метод сжатия : С потерями
Размер потока : 268 Мбайт (6%)
Заголовок : DUB (ЦТВ со вставками НТВ)
Язык : Russian
Default : Да
Forced : Нет

Аудио #2
Идентификатор : 3
Формат : AC-3
Формат/Информация : Audio Coding 3
Расширение режима : CM (complete main)
Параметр Endianness формата : Big
Идентификатор кодека : A_AC3
Продолжительность : 1 ч. 37 м.
Вид битрейта : Постоянный
Битрейт : 384 Кбит/сек
Каналы : 2 канала
Расположение каналов : Front: L R
Частота : 48,0 КГц
Битовая глубина : 16 бит
Метод сжатия : С потерями
Размер потока : 268 Мбайт (6%)
Заголовок : MVO (HTB)
Язык : Russian
Default : Нет
Forced : Нет

Аудио #3
Идентификатор : 4
Формат : AC-3
Формат/Информация : Audio Coding 3
Расширение режима : CM (complete main)
Параметр Endianness формата : Big
Идентификатор кодека : A_AC3
Продолжительность : 1 ч. 37 м.
Вид битрейта : Постоянный
Битрейт : 384 Кбит/сек
Каналы : 2 канала
Расположение каналов : Front: L R
Частота : 48,0 КГц
Битовая глубина : 16 бит
Метод сжатия : С потерями
Размер потока : 268 Мбайт (6%)
Заголовок : DVO (1+1)
Язык : Ukrainian
Default : Нет
Forced : Нет

Аудио #4
Идентификатор : 5
Формат : AC-3
Формат/Информация : Audio Coding 3
Расширение режима : CM (complete main)
Параметр Endianness формата : Big
Идентификатор кодека : A_AC3
Продолжительность : 1 ч. 37 м.
Вид битрейта : Постоянный
Битрейт : 384 Кбит/сек
Каналы : 2 канала
Расположение каналов : Front: L R
Частота : 48,0 КГц
Битовая глубина : 16 бит
Метод сжатия : С потерями
Размер потока : 268 Мбайт (6%)
Заголовок : Original
Язык : French
Default : Нет
Forced : Нет

Текст
Идентификатор : 6
Формат : UTF-8
Идентификатор кодека : S_TEXT/UTF8
Идентификатор кодека/Информация : UTF-8 Plain Text
Заголовок : русский
Язык : Russian
Default : Нет
Forced : Нет

---[Information] [27.01.2014 17:10:33] avs [info]: 1280x544p 1:1 @ 24/1 fps (cfr)
---[Information] [27.01.2014 17:10:33] x264 [info]: using SAR=1/1
---[Information] [27.01.2014 17:10:33] x264 [info]: using cpu capabilities: MMX2 SSE2Fast SSSE3 SSE4.2
---[Information] [27.01.2014 17:10:33] x264 [info]: profile High, level 4.1
---[Information] [28.01.2014 1:46:10] x264 [info]: frame I:1029 Avg QP:20.59 size:110935
---[Information] [28.01.2014 1:46:10] x264 [info]: frame P:28283 Avg QP:21.58 size: 47179
---[Information] [28.01.2014 1:46:10] x264 [info]: frame B:111336 Avg QP:23.62 size: 21716
---[Information] [28.01.2014 1:46:10] x264 [info]: consecutive B-frames: 1.2% 0.9% 4.5% 19.5% 17.2% 53.3% 3.3%
---[Information] [28.01.2014 1:46:10] x264 [info]: mb I I16..4: 5.2% 81.6% 13.2%
---[Information] [28.01.2014 1:46:10] x264 [info]: mb P I16..4: 0.9% 24.2% 2.5% P16..4: 33.8% 25.6% 12.1% 0.0% 0.0% skip: 0.9%
---[Information] [28.01.2014 1:46:10] x264 [info]: mb B I16..4: 0.1% 3.9% 0.3% B16..8: 39.5% 12.5% 3.6% direct:15.4% skip:24.7% L0:40.5% L1:42.5% BI:17.0%
---[Information] [28.01.2014 1:46:10] x264 [info]: 8x8 transform intra:88.6% inter:62.2%
---[Information] [28.01.2014 1:46:10] x264 [info]: coded y,uvDC,uvAC intra: 95.0% 79.5% 44.4% inter: 47.3% 36.3% 2.3%
---[Information] [28.01.2014 1:46:10] x264 [info]: i16 v,h,dc,p: 28% 11% 23% 38%
---[Information] [28.01.2014 1:46:10] x264 [info]: i8 v,h,dc,ddl,ddr,vr,hd,vl,hu: 10% 8% 11% 9% 13% 13% 12% 12% 13%
---[Information] [28.01.2014 1:46:10] x264 [info]: i4 v,h,dc,ddl,ddr,vr,hd,vl,hu: 10% 6% 3% 9% 16% 16% 14% 12% 13%
---[Information] [28.01.2014 1:46:10] x264 [info]: i8c dc,h,v,p: 40% 25% 21% 14%
---[Information] [28.01.2014 1:46:10] x264 [info]: Weighted P-Frames: Y:8.3% UV:4.5%
---[Information] [28.01.2014 1:46:10] x264 [info]: ref P L0: 37.3% 13.4% 20.4% 6.9% 6.9% 4.4% 4.8% 2.5% 3.0% 0.3% 0.0%
---[Information] [28.01.2014 1:46:10] x264 [info]: ref B L0: 77.0% 10.6% 4.6% 2.7% 2.0% 1.8% 1.0% 0.5%
---[Information] [28.01.2014 1:46:10] x264 [info]: ref B L1: 95.0% 5.0%
---[Information] [28.01.2014 1:46:10] x264 [info]: kb/s:5277.98
---[Information] [28.01.2014 1:46:10] encoded 140648 frames, 4.55 fps, 5277.98 kb/s
--[Information] [28.01.2014 1:46:12] Final statistics
---[Information] [28.01.2014 1:46:12] Constant Quality Mode: Quality 19 computed...
---[Information] [28.01.2014 1:46:12] Video Bitrate Obtained (approximate): 5279 kbit/s
--[Information] [28.01.2014 1:46:12] MediaInfo
---[Information] File: E:RipAngelika.5.1968.x264.BDRipAngelika.5.1968.x264.BDRip.720p.mkv


Sovetnik
Аватара пользователя
 
Раздал: 32.13 ТБ
Скачал: 13.11 ГБ
Ратио: 2510.256
Сообщения: 1272
Зарегистрирован: 13 фев 2014, 05:19
  • Торрент
Автор: Sovetnik Хэш: ---
Добавлен: 05 ноя 2019, 00:11 Приватный: Нет (DHT включён)
Статус: Проверен
Размер: 4.65 ГБ (4 993 668 267 байт)
Изменил:
---
Скачали: 1 (Раздающих: 0%)
Причина:
---
Здоровье: 0%
Сидеров: 0 Личеров: 0
Скорость раздачи: 0 байт/сек Скорость скачивания: 0 байт/сек
Последний сидер: Нет Последний личер: Нет
Для скачивания торрента необходимо зарегистрироваться или войти на трекер.

Форум Статистика

Кто сейчас на конференции

Сейчас этот форум просматривают: нет зарегистрированных пользователей и гости: 2

  • Похожие торренты
    Ответы
    Просмотры
    Последнее сообщение

Настройки

Вернуться в Фильмы / HDTV / HD / Blu-Ray

cron
Ресурс не предоставляет электронные версии произведений, а занимается лишь коллекционированием и каталогизацией ссылок, присылаемых и публикуемых на форуме нашими читателями. Если вы являетесь правообладателем какого-либо представленного материала и не желаете чтобы ссылка на него находилась в нашем каталоге, свяжитесь с нами и мы незамедлительно удалим её. Файлы для обмена на трекере предоставлены пользователями сайта, и администрация не несёт ответственности за их содержание. Просьба не заливать файлы, защищенные авторскими правами, а также файлы нелегального содержания!
cron