Модераторы: Модераторы, Младшие модераторы

Дорогой папа (Михаил Расходников) [2019, комедия, семейный, WEB-DL 1080p | iTunes]

Сообщение Sovetnik » 13 окт 2019, 01:03

Дорогой папа
«Богатый тоже плачет»


#777

Название: Дорогой папа
Год выхода: 2019
Выпущено: Россия
Продолжительность: 01:27:04
Перевод: не требуется
Жанр: комедия, семейный

Режиссер: Михаил Расходников

В ролях:
Владимир Вдовиченков, Валентина Ляпина, Владимир Сычев, Ирина Пегова, Николай Шрайбер, Иева Андреевайте, Игорь Ясулович, Юлия Сулес, Варвара Малкова, Андрей Пермяков

О фильме:
Владелец ведущей торговой сети Вадим Дюмин привык добиваться своего любыми способами. Обаяние и продуманный план помогают ему найти китайского инвестора, готового стать партнером в компании Вадима, оформленной когда-то на его маму. Вот только, оказалось, она завещала акции своей внучке, его дочери... Которую Вадим бросил, когда ей было 2 года. Теперь Вадим должен поехать в свой родной маленький город, найти бывшую жену и дочь и убедить их отказаться от наследства на сумму... где-то полмиллиарда долларов. Вадим уверен, что его обаяние и манипуляции сработают и здесь, но в мире дочери его методы не работают, и слово "дорогой" здесь совсем не про деньги.



Контейнер: MKV
Тип релиза: WEB-DL 1080p
Видео: MPEG4 AVC Video, H264, 2.40:1, 1920x800, 24 fps, 5176 kbps
Аудио: Russian (AC3, 6 ch, 384 kbps, 16 bits, 48.0 KHz) - оригинал (iTunes)
Субтитры: нет

General
Unique ID : 193979933455381108027471167423148523441 (0x91EF2D1E67B9B0F29C4693A52E8CFFB1)
Complete name : D:Dorogoy.papa.2019.WEB-DL.(1080p).Getty.mkv
Format : Matroska
Format version : Version 4 / Version 2
File size : 3.38 GiB
Duration : 1 h 27 min
Overall bit rate : 5 562 kb/s
Movie name : Dorogoy.papa.2019.WEB-DL.(1080p).Getty
Encoded date : UTC 2019-10-11 23:46:59
Writing application : mkvmerge v7.8.0 ('River Man') 32bit built on Mar 27 2015 16:18:02
Writing library : libebml v1.3.1 + libmatroska v1.4.2

Video
ID : 1
Format : AVC
Format/Info : Advanced Video Codec
Format profile : High@L4
Format settings : CABAC / 4 Ref Frames
Format settings, CABAC : Yes
Format settings, ReFrames : 4 frames
Codec ID : V_MPEG4/ISO/AVC
Duration : 1 h 27 min
Bit rate : 5 176 kb/s
Width : 1 920 pixels
Height : 800 pixels
Display aspect ratio : 2.40:1
Frame rate mode : Constant
Frame rate : 24.000 FPS
Color space : YUV
Chroma subsampling : 4:2:0
Bit depth : 8 bits
Scan type : Progressive
Bits/(Pixel*Frame) : 0.140
Stream size : 3.15 GiB (93%)
Default : Yes
Forced : No

Audio
ID : 2
Format : AC-3
Format/Info : Audio Coding 3
Codec ID : A_AC3
Duration : 1 h 27 min
Bit rate mode : Constant
Bit rate : 384 kb/s
Channel(s) : 6 channels
Channel positions : Front: L C R, Side: L R, LFE
Sampling rate : 48.0 kHz
Frame rate : 31.250 FPS (1536 SPF)
Bit depth : 16 bits
Compression mode : Lossy
Stream size : 239 MiB (7%)
Service kind : Complete Main
Default : Yes
Forced : No
Sovetnik
Аватара пользователя
 
Раздал: 32.13 ТБ
Скачал: 13.11 ГБ
Ратио: 2510.256
Сообщения: 1310
Зарегистрирован: 13 фев 2014, 05:19
  • Торрент
Автор: Sovetnik Хэш: ---
Добавлен: 13 окт 2019, 01:28 Приватный: Нет (DHT включён)
Статус: Проверен
Размер: 3.38 ГБ (3 632 312 360 байт)
Изменил:
---
Скачали: 10 (Раздающих: 0%)
Причина:
---
Здоровье: 100%
Сидеров: 40 Личеров: 10
Скорость раздачи: 0 байт/сек Скорость скачивания: 0 байт/сек
Последний сидер: 1 день 4 часа 14 минут 12 секунд назад Последний личер: 1 день 4 часа 14 минут 12 секунд назад
Для скачивания торрента необходимо зарегистрироваться или войти на трекер.

Форум Статистика

Кто сейчас на конференции

Сейчас этот форум просматривают: нет зарегистрированных пользователей и гости: 1

  • Похожие торренты
    Ответы
    Просмотры
    Последнее сообщение

Настройки

Вернуться в Фильмы / HDTV / HD / Blu-Ray

cron
Ресурс не предоставляет электронные версии произведений, а занимается лишь коллекционированием и каталогизацией ссылок, присылаемых и публикуемых на форуме нашими читателями. Если вы являетесь правообладателем какого-либо представленного материала и не желаете чтобы ссылка на него находилась в нашем каталоге, свяжитесь с нами и мы незамедлительно удалим её. Файлы для обмена на трекере предоставлены пользователями сайта, и администрация не несёт ответственности за их содержание. Просьба не заливать файлы, защищенные авторскими правами, а также файлы нелегального содержания!
cron