Модераторы: K15, Модераторы, Младшие модераторы

Круэлла / Cruella (Крэйг Гиллеспи / Craig Gillespie) [2021, Великобритания, США, комедия, криминал, драма, BDRip] Dub (Невафильм) + Sub (Rus, Eng) + Original Eng

Сообщение Sovetnik » 18 янв 2022, 14:10

#777

Круэлла / Cruella


Страна: Великобритания, США
Жанр: комедия, криминал, драма
Год выпуска: 2021
Продолжительность: 02:13:55
Перевод: Профессиональный (дублированный) | Невафильм
Субтитры: русские, английские
Оригинальная аудиодорожка: английский

Режиссер: Крэйг Гиллеспи / Craig Gillespie

В ролях: Эмма Стоун, Марк Стронг, Эмма Томпсон, Эмили Бичем, Пол Уолтер Хаузер, Кирби Хауэлл-Баптист, Джоэль Фрай, Джэми Деметриу, Эви Рэй, Харука Абэ, Джанни Калькетти, Джон Маккри, Тони Маккарти, Ниам Линч, Эд Бирч

Описание:
Великобритания, 1960-е годы. Эстелла была необычным ребёнком, и особенно трудно ей было мириться со всякого рода несправедливостью. Вылетев из очередной школы, она с мамой отправляется в Лондон. По дороге они заезжают в особняк известной модельерши по имени Баронесса, где в результате ужасного несчастного случая мама погибает. Добравшись до Лондона, Эстелла знакомится с двумя мальчишками — уличными мошенниками Джаспером и Хорасом. 10 лет спустя та же компания промышляет на улицах британской столицы мелким воровством, но Эстелла никак не может оставить мечту сделать карьеру в мире моды. Хитростью устроившись в фешенебельный универмаг, девушка привлекает внимание Баронессы, и та берёт её к себе в штат дизайнеров.



Сэмпл

Качество видео: BDRip | Cruella.2021.1080p.BDREMUX.1080p.seleZen
Формат видео: AVI
Видео: 704x384 (1.83:1), 23.976 fps, XviD build 73 ~1551 kbps avg, 0.24 bit/pixel
Аудио 1: 48 kHz, AC3 Dolby Digital, 3/2 (L,C,R,l,r) + LFE ch, ~384 kbps | RUS
Аудио 2: 48 kHz, AC3 Dolby Digital, 3/2 (L,C,R,l,r) + LFE ch, ~384 kbps | ENG
Код: Выделить всё
Код:
Код: Выделить всё
Формат                                   : AVI
Формат/Информация                        : Audio Video Interleave
Профиль формата                          : OpenDML
Размер файла                             : 2,18 Гбайт
Продолжительность                        : 2 ч. 13 м.
Общий поток                              : 2 326 Кбит/сек
Название фильма                          : Круэлла_2021_BDRip
Программа кодирования                    : VirtualDubMod 1.5.10.2 (build 2542/release)
Авторское право                          : порошков
Видео
Идентификатор                            : 0
Формат                                   : MPEG-4 Visual
Профиль формата                          : Advanced Simple@L5
Настройки формата                        : BVOP1 / Custom Matrix
Параметр BVOP формата                    : 1
Параметр QPel формата                    : Нет
Параметр GMC формата                     : Без точки перехода
Параметр матрицы формата                 : Выборочная
Идентификатор кодека                     : XVID
Идентификатор кодека/Подсказка           : XviD
Продолжительность                        : 2 ч. 13 м.
Битрейт                                  : 1 540 Кбит/сек
Ширина                                   : 704 пикселя
Высота                                   : 384 пикселя
Соотношение сторон                       : 1,85:1
Частота кадров                           : 23,976 (24000/1001) кадра/сек
Цветовое пространство                    : YUV
Субдискретизация насыщенности            : 4:2:0
Битовая глубина                          : 8 бит
Тип развёртки                            : Прогрессивная
Метод сжатия                             : С потерями
Бит/(Пиксели*Кадры)                      : 0.238
Размер потока                            : 1,44 Гбайт (66%)
Библиотека кодирования                   : XviD 73
Аудио #1
Идентификатор                            : 1
Формат                                   : AC-3
Формат/Информация                        : Audio Coding 3
Коммерческое название                    : Dolby Digital
Идентификатор кодека                     : 2000
Продолжительность                        : 2 ч. 13 м.
Вид битрейта                             : Постоянный
Битрейт                                  : 384 Кбит/сек
Каналы                                   : 6 каналов
Channel layout                           : L R C LFE Ls Rs
Частота                                  : 48,0 КГц
Частота кадров                           : 31,250 кадров/сек (1536 SPF)
Метод сжатия                             : С потерями
Размер потока                            : 368 Мбайт (17%)
Выравнивание                             : Разделение по промежуткам
Продолжительность промежутка             : 42  мс. (1,00 видеокадр)
Время предзагрузки промежутка            : 500  мс.
Заголовок                                : rus
Service kind                             : Complete Main
Аудио #2
Идентификатор                            : 2
Формат                                   : AC-3
Формат/Информация                        : Audio Coding 3
Коммерческое название                    : Dolby Digital
Идентификатор кодека                     : 2000
Продолжительность                        : 2 ч. 13 м.
Вид битрейта                             : Постоянный
Битрейт                                  : 384 Кбит/сек
Каналы                                   : 6 каналов
Channel layout                           : L R C LFE Ls Rs
Частота                                  : 48,0 КГц
Частота кадров                           : 31,250 кадров/сек (1536 SPF)
Метод сжатия                             : С потерями
Размер потока                            : 368 Мбайт (17%)
Выравнивание                             : Разделение по промежуткам
Продолжительность промежутка             : 42  мс. (1,00 видеокадр)
Время предзагрузки промежутка            : 500  мс.
Заголовок                                : eng
Service kind                             : Complete Main


Sovetnik
Аватара пользователя
 
Раздал: 32.14 ТБ
Скачал: 13.23 ГБ
Ратио: 2488.285
Сообщения: 1903
Зарегистрирован: 13 фев 2014, 05:19
  • Торрент
Автор: Sovetnik Хэш: ---
Добавлен: 18 янв 2022, 14:10 Приватный: Нет (DHT включён)
Статус: Проверен
Размер: 2.18 ГБ (2 337 039 518 байт)
Изменил:
---
Скачали: 1 (Раздающих: 0%)
Причина:
---
Здоровье: 100%
Сидеров: 34 Личеров: 11
Скорость раздачи: 0 байт/сек Скорость скачивания: 0 байт/сек
Последний сидер: 1 месяц 22 дня 12 часов 56 минут 41 секунду назад Последний личер: 1 месяц 22 дня 12 часов 56 минут 41 секунду назад
Для скачивания торрента необходимо зарегистрироваться или войти на трекер.

Форум Статистика

Сейчас этот форум просматривают: Bing [Bot] и гости: 7

Настройки

Вернуться в Фильмы / AVI

cron
Ресурс не предоставляет электронные версии произведений, а занимается лишь коллекционированием и каталогизацией ссылок, присылаемых и публикуемых на форуме нашими читателями. Если вы являетесь правообладателем какого-либо представленного материала и не желаете чтобы ссылка на него находилась в нашем каталоге, свяжитесь с нами и мы незамедлительно удалим её. Файлы для обмена на трекере предоставлены пользователями сайта, и администрация не несёт ответственности за их содержание. Просьба не заливать файлы, защищенные авторскими правами, а также файлы нелегального содержания!
tracker_cron