Модераторы: K15, Модераторы, Младшие модераторы

Время / Old (М. Найт Шьямалан / M. Night Shyamalan) [2021, США, триллер, драма, фантастика, HDRip] Dub

Сообщение Sovetnik » 18 янв 2022, 14:10

#777

Время / Old
«Жизнь — лишь вопрос времени»


Год выхода: 2021
Страна: США
Жанр: триллер, драма, фантастика
Продолжительность: 01:48:27
Перевод : Профессиональный (полное дублирование) Студия «Пифагор»
Субтитры: нет

Режиссер:
М. Найт Шьямалан / M. Night Shyamalan

В ролях:
Гаэль Гарсиа Берналь, Вики Крипс, Руфус Сьюэлл, Кен Люн, Никки Амука-Бёрд, Эбби Ли, Аарон Пьер, Алекс Вулф, Эмбет Дэвидц, Элайза Сканлен, Томасин МакКензи, Иман Эллиотт, Алекса Суинтон, Густаф Хаммарстен, Кэтлин Чэлфант

О фильме:
Отправившись в отпуск на тропический остров, семья с двумя детьми решает последовать совету менеджера отеля и посетить прекрасный уединенный пляж. Кроме них на пляже оказываются и другие постояльцы: семейство с маленькой дочкой, пара среднего возраста и популярный репер. Но вскоре расслабленный отдых сменяется паникой, когда компания обнаруживает труп и замечает, что дети вдруг начали очень быстро взрослеть.

Релиз групп | IMDB | КиноПоиск | Сэмпл |

Качество: HDRip
Формат: AVI
Видео: 720x304 (2.37:1), 23.976 fps, XviD build 69 ~1538 kbps avg, 0.29 bit/pixel
Аудио: 48 kHz, AC3 Dolby Digital, 3/2 (L,C,R,l,r) + LFE ch, ~384 kbps avg - iTunes Russia

Код:
Код: Выделить всё
Общее
Полное имя                               : D:\Old_2021_HDRip_iT_by_Dalemake.avi
Формат                                   : AVI
Формат/Информация                        : Audio Video Interleave
Размер файла                             : 1,46 Гбайт
Продолжительность                        : 1 ч. 48 м.
Общий поток                              : 1932 Кбит/сек
Программа кодирования                    : VirtualDubMod 1.5.10.3 | www.virtualdub-fr.org || (build 2550/release)
Библиотека кодирования                   : VirtualDubMod build 2550/release
Видео
Идентификатор                            : 0
Формат                                   : MPEG-4 Visual
Профиль формата                          : Advanced Simple@L5
Параметр BVOP формата                    : 1
Параметр QPel формата                    : Нет
Параметр GMC формата                     : Без точки перехода
Параметр матрицы формата                 : Выборочная
Идентификатор кодека                     : XVID
Идентификатор кодека/Подсказка           : XviD
Продолжительность                        : 1 ч. 48 м.
Битрейт                                  : 1539 Кбит/сек
Ширина                                   : 720 пикселей
Высота                                   : 304 пикселя
Соотношение сторон                       : 2,35:1
Частота кадров                           : 23,976 кадра/сек
Цветовое пространство                    : YUV
Субдискретизация насыщенности            : 4:2:0
Битовая глубина                          : 8 бит
Тип развёртки                            : Прогрессивная
Метод сжатия                             : С потерями
Бит/(Пиксели*Кадры)                      : 0.293
Размер потока                            : 1,17 Гбайт (80%)
Библиотека кодирования                   : XviD 69
Аудио
Идентификатор                            : 1
Формат                                   : AC-3
Формат/Информация                        : Audio Coding 3
Расширение режима                        : CM (complete main)
Параметр Endianness формата              : Big
Идентификатор кодека                     : 2000
Продолжительность                        : 1 ч. 48 м.
Вид битрейта                             : Постоянный
Битрейт                                  : 384 Кбит/сек
Каналы                                   : 6 каналов
Расположение каналов                     : Front: L C R, Side: L R, LFE
Частота                                  : 48,0 КГц
Метод сжатия                             : С потерями
Размер потока                            : 298 Мбайт (20%)
Выравнивание                             : Разделение по промежуткам
Продолжительность промежутка             : 42  мс. (1,00 видеокадр)
Время предзагрузки промежутка            : 500  мс.
Sovetnik
Аватара пользователя
 
Раздал: 32.14 ТБ
Скачал: 13.23 ГБ
Ратио: 2488.285
Сообщения: 1903
Зарегистрирован: 13 фев 2014, 05:19
  • Торрент
Автор: Sovetnik Хэш: ---
Добавлен: 18 янв 2022, 14:10 Приватный: Нет (DHT включён)
Статус: Проверен
Размер: 1.46 ГБ (1 571 420 160 байт)
Изменил:
---
Скачали: 0 (Раздающих: 0%)
Причина:
---
Здоровье: 100%
Сидеров: 34 Личеров: 11
Скорость раздачи: 0 байт/сек Скорость скачивания: 0 байт/сек
Последний сидер: 1 месяц 22 дня 13 часов 34 минуты 37 секунд назад Последний личер: 1 месяц 22 дня 13 часов 34 минуты 37 секунд назад
Для скачивания торрента необходимо зарегистрироваться или войти на трекер.

Форум Статистика

Сейчас этот форум просматривают: нет зарегистрированных пользователей и гости: 5

Настройки

Вернуться в Фильмы / AVI

cron
Ресурс не предоставляет электронные версии произведений, а занимается лишь коллекционированием и каталогизацией ссылок, присылаемых и публикуемых на форуме нашими читателями. Если вы являетесь правообладателем какого-либо представленного материала и не желаете чтобы ссылка на него находилась в нашем каталоге, свяжитесь с нами и мы незамедлительно удалим её. Файлы для обмена на трекере предоставлены пользователями сайта, и администрация не несёт ответственности за их содержание. Просьба не заливать файлы, защищенные авторскими правами, а также файлы нелегального содержания!