Модераторы: K15, Модераторы, Младшие модераторы

Поколение Вояджер / Voyagers (Нил Бёргер / Neil Burger) [2021, США, Чехия, Румыния, Великобритания, Фантастика, драма, триллер, WEB-DLRip] MVO (HDRezka Studio)

Сообщение Sovetnik » 18 янв 2022, 14:10

#777

Поколение Вояджер / Voyagers


Страна: США, Чехия, Румыния, Великобритания
Жанр: Фантастика, драма, триллер
Год выпуска: 2021
Продолжительность: 01:47:58
Перевод: Любительский (многоголосый закадровый)HDRezka Studio
Субтитры: Русские (форсированные)

Режиссер: Нил Бёргер / Neil Burger

В ролях: Тай Шеридан, Финн Уайтхед, Лили-Роуз Депп, Колин Фаррелл, Шанте Адамс, Куинтесса Суинделл, Арчи Мадекве, Айзек Хемпстед-Райт, Вивеик Калра, Мэдисон Ху

Описание:
Из-за глобального потепления в 2063 году был запущен проект выживания человечества. Из биоматериала специально отобранных доноров в пробирках была выращена группа детей. Они не покидали стен лаборатории — жили там и обучались под неустанным контролем, чтобы не привыкать к солнечному свету и открытым пространствам. Совсем ещё молодыми людьми они отправляются в путешествие к далёкой подходящей для жизни планете, но долетят дотуда в лучшем случае их внуки. Вскоре друзья Зак и Кристофер выясняют, что в витаминном напитке, который вся команда, за исключением сопровождающего их взрослого, принимает каждый день, содержится вещество, делающее их спокойными и послушными.


Сэмпл: http://multi-up.com/1278472

Качество видео: WEB-DLRip
Формат видео: AVI
Видео: 720x304 (2,35:1), 23.976 fps, XviD, 1480 Kbps, 0.282 bit/pixel
Аудио: AC3, 48 kHz, 6 ch, 448.00 Kbps
Код: Выделить всё
   General
      Complete name : Downloads\Voyagers.2021.AMZN.MVO.WEB-DLRip.1.46Gb.MegaPeer\Voyagers.2021.AMZN.MVO.WEB-DLRip
      Format : AVI
      Format/Info : Audio Video Interleave
      File size : 1.46 GiB
      Duration : 1 h 47 min
      Overall bit rate : 1 937 kb/s
      Writing application : VirtualDubModRus 1.5.10.2 (build 2542/release)
      Writing library : VirtualDubMod build 2542/release
   Video #0
      ID : 0
      Format : MPEG-4 Visual
      Format profile : Advanced Simple@L5
      Format settings : BVOP1 / Custom Matrix
      Format settings, BVOP : 1
      Format settings, QPel : No
      Format settings, GMC : No warppoints
      Format settings, Matrix : Custom
      Codec ID : XVID
      Codec ID/Hint : XviD
      Duration : 1 h 47 min
      Bit rate : 1 480 kb/s
      Width : 720 pixels
      Height : 304 pixels
      Display aspect ratio : 2.35:1
      Frame rate : 23.976 (24000/1001) FPS
      Color space : YUV
      Chroma subsampling : 4:2:0
      Bit depth : 8 bits
      Scan type : Progressive
      Compression mode : Lossy
      Bits/(Pixel*Frame) : 0.282
      Stream size : 1.12 GiB (76%)
      Writing library : XviD 73
   Audio #1
      ID : 1
      Format : AC-3
      Format/Info : Audio Coding 3
      Codec ID : 2000
      Duration : 1 h 47 min
      Bit rate mode : Constant
      Bit rate : 448 kb/s
      Channel(s) : 6 channels
      Channel positions : Front: L C R, Side: L R, LFE
      Sampling rate : 48.0 kHz
      Frame rate : 31.250 FPS (1536 SPF)
      Bit depth : 16 bits
      Compression mode : Lossy
      Stream size : 346 MiB (23%)
      Alignment : Split accross interleaves
      Interleave, duration : 42  ms (1.00 video frame)
      Interleave, preload duration : 500  ms
      Service kind : Complete Main
Sovetnik
Аватара пользователя
 
Раздал: 32.14 ТБ
Скачал: 13.23 ГБ
Ратио: 2488.285
Сообщения: 1903
Зарегистрирован: 13 фев 2014, 05:19
  • Торрент
Автор: Sovetnik Хэш: ---
Добавлен: 18 янв 2022, 14:10 Приватный: Нет (DHT включён)
Статус: Проверен
Размер: 1.46 ГБ (1 568 809 312 байт)
Изменил:
---
Скачали: 0 (Раздающих: 0%)
Причина:
---
Здоровье: 100%
Сидеров: 36 Личеров: 11
Скорость раздачи: 0 байт/сек Скорость скачивания: 0 байт/сек
Последний сидер: 1 месяц 22 дня 12 часов 35 минут 35 секунд назад Последний личер: 1 месяц 22 дня 12 часов 35 минут 35 секунд назад
Для скачивания торрента необходимо зарегистрироваться или войти на трекер.

Форум Статистика

Сейчас этот форум просматривают: нет зарегистрированных пользователей и гости: 13

Настройки

Вернуться в Фильмы / AVI

cron
Ресурс не предоставляет электронные версии произведений, а занимается лишь коллекционированием и каталогизацией ссылок, присылаемых и публикуемых на форуме нашими читателями. Если вы являетесь правообладателем какого-либо представленного материала и не желаете чтобы ссылка на него находилась в нашем каталоге, свяжитесь с нами и мы незамедлительно удалим её. Файлы для обмена на трекере предоставлены пользователями сайта, и администрация не несёт ответственности за их содержание. Просьба не заливать файлы, защищенные авторскими правами, а также файлы нелегального содержания!
tracker_cron