Модераторы: K15, Модераторы, Младшие модераторы

Никто / Nobody (Илья Найшуллер / Ilya Naishuller) [2021, США, Япония, Боевик, триллер, криминал, HDRip] Dub

Сообщение Sovetnik » 18 янв 2022, 14:10

#777

Никто / Nobody



Год выпуска: 2021
Страна: США, Япония
Жанр: Боевик, триллер, криминал
Продолжительность: 01:31:41
Перевод: Профессиональный (полное дублирование) | iTunes
Субтитры: нет

Режиссёр:Илья Найшуллер / Ilya Naishuller

В ролях:
Боб Оденкёрк, Алексей Серебряков, Конни Нильсен, Кристофер Ллойд, Майкл Айронсайд, Колин Сэлмон, RZA, Билли Маклеллан, Арая Менгеша, Гейдж Манро, Пэйсли Кэдорат, Александр Паль, Хамберли Гонсалес, Эдссон Моралес, Жан-Поль Мано

Описание:
Непримечательный и незаметный семьянин Хатч живёт скучной жизнью обычного аудитора, пока однажды в его дом не вламываются грабители. И это бы сошло им с рук, если бы они не забрали браслетик его маленькой дочки. Не в силах это терпеть, Хатч отправляется на поиски наглецов, а на обратном пути ввязывается в драку с пьяными хулиганами, пристававшими к девушке в общественном транспорте. От души помахав кулаками, наш аудитор отправляет дебоширов в больницу, но оказывается, что один из пострадавших — брат влиятельного русского бандита. И он теперь жаждет мести.

Сэмпл: http://multi-up.com/1286303

Качество видео: ]HDRip
Формат: AVI
Видео: 688x288 (2.39:1), 23.976 fps, XviD build 73 ~995 kbps avg, 0.21 bit/pixel
Аудио: 48 kHz, MPEG Layer 3, 2 ch, ~128.00 kbps avg
[code]Nobody.2021.HDRip.avi
Format : AVI
Format/Info : Audio Video Interleave
File size : 743 MiB
Duration : 1h 31mn
Overall bit rate : 1 133 Kbps
Writing application : VirtualDubMod 1.5.10.3 | http://www.virtualdub-fr.org || (build 2550/release)
Writing library : VirtualDubMod build 2550/release
Video
Format : MPEG-4 Visual
Format profile : Streaming Video@L1
Format settings, BVOP : Yes
Format settings, QPel : No
Format settings, GMC : No warppoints
Format settings, Matrix : Custom
Codec ID : XVID
Codec ID/Hint : XviD
Duration : 1h 31mn
Bit rate : 996 Kbps
Width : 688 pixels
Height : 288 pixels
Display aspect ratio : 2.35
Frame rate : 23.976 fps
Resolution : 24 bits
Colorimetry : 4:2:0
Scan type : Progressive
Bits/(Pixel*Frame) : 0.210
Stream size : 653 MiB (88%)
Writing library : XviD 73
Audio
Format : MPEG Audio
Format version : Version 1
Format profile : Layer 3
Codec ID : 55
Codec ID/Hint : MP3
Duration : 1h 31mn
Bit rate mode : Constant
Bit rate : 128 Kbps
Channel(s) : 2 channels
Sampling rate : 48.0 KHz
Resolution : 16 bits
Stream size : 83.9 MiB (11%)
Alignment : Aligned on interleaves
Interleave, duration : 42 ms (1.00 video frame)
Interleave, preload duration : 504 ms
Writing library : LAME3.99r
Encoding settings : -m s -V 4 -q 2 -lowpass 17 -b 128
Sovetnik
Аватара пользователя
 
Раздал: 32.14 ТБ
Скачал: 13.23 ГБ
Ратио: 2488.285
Сообщения: 1903
Зарегистрирован: 13 фев 2014, 05:19
  • Торрент
Автор: Sovetnik Хэш: ---
Добавлен: 18 янв 2022, 14:10 Приватный: Нет (DHT включён)
Статус: Проверен
Размер: 743.37 МБ (779 481 088 байт)
Изменил:
---
Скачали: 0 (Раздающих: 0%)
Причина:
---
Здоровье: 100%
Сидеров: 34 Личеров: 11
Скорость раздачи: 0 байт/сек Скорость скачивания: 0 байт/сек
Последний сидер: 1 месяц 22 дня 13 часов 11 минут 7 секунд назад Последний личер: 1 месяц 22 дня 13 часов 11 минут 7 секунд назад
Для скачивания торрента необходимо зарегистрироваться или войти на трекер.

Форум Статистика

Сейчас этот форум просматривают: нет зарегистрированных пользователей и гости: 9

Настройки

Вернуться в Фильмы / AVI

cron
Ресурс не предоставляет электронные версии произведений, а занимается лишь коллекционированием и каталогизацией ссылок, присылаемых и публикуемых на форуме нашими читателями. Если вы являетесь правообладателем какого-либо представленного материала и не желаете чтобы ссылка на него находилась в нашем каталоге, свяжитесь с нами и мы незамедлительно удалим её. Файлы для обмена на трекере предоставлены пользователями сайта, и администрация не несёт ответственности за их содержание. Просьба не заливать файлы, защищенные авторскими правами, а также файлы нелегального содержания!
tracker_cron