Модераторы: K15, Модераторы, Младшие модераторы

Охотники за привидениями: Наследники / Ghostbusters: Afterlife (2021) WEB-DLRip от ExKinoRay | D

Сообщение Basmac4 » 18 янв 2022, 04:07

#777Информация о фильме
Название: Охотники за привидениями: Наследники
Оригинальное название: Ghostbusters: Afterlife
Год выхода: 2021
Жанр: Фантастика, комедия, боевик
Режиссер: Джейсон Райтман
В ролях: Финн Вулфхард, Маккенна Грэйс, Кэрри Кун, Сигурни Уивер, Билл Мюррей, Дэн Эйкройд, Эрни Хадсон, Логан Ким, Селеста О Коннор, Энни Поттс

О фильме:
Мать-одиночка с двумя детьми-подростками селится на старой ферме в Оклахоме, полученной в наследство от отца, которого она не знала. Дети пытаются больше узнать о своем деде и находят автомобиль Ecto-1, принадлежавший знаменитым охотникам за привидениями...




Страна: США, Канада
Студия: Columbia Pictures, BRON Studios, Ghostcorps
Продолжительность: 02:03:54
Перевод: Профессиональный дублированный - Google Play

Файл
Кодек: XviD
Качество: WEB-DLRip
Видео: 688x288 (2.39:1), 23.976 fps, XviD build 73 ~706 kbps avg, 0.15 bit/pixel
Звук: 48 kHz, MP3, 2 ch, ~128.00 kbps avg
Субтитры: Русские (Forced) - не отключаемые

General
Complete name : D:Охотники за привидениями. Наследники.2021.(Rus_sub forced).AMZN.WEB-DLRip by.ExKinoRay & Shkiper.avi
Format : AVI
Format/Info : Audio Video Interleave
File size : 748 MiB
Duration : 2 h 3 min
Overall bit rate : 844 kb/s
Writing application : VirtualDubMod 1.5.10.3 | http://www.virtualdub-fr.org || (build 2550/release)
Writing library : VirtualDubMod build 2550/release

Video
ID : 0
Format : MPEG-4 Visual
Format profile : Advanced Simple@L5
Format settings : BVOP1 / Custom Matrix
Format settings, BVOP : 1
Format settings, QPel : No
Format settings, GMC : No warppoints
Format settings, Matrix : Custom
Codec ID : XVID
Codec ID/Hint : XviD
Duration : 2 h 3 min
Bit rate : 706 kb/s
Width : 688 pixels
Height : 288 pixels
Display aspect ratio : 2.40:1
Frame rate : 23.976 (24000/1001) FPS
Color space : YUV
Chroma subsampling : 4:2:0
Bit depth : 8 bits
Scan type : Progressive
Compression mode : Lossy
Bits/(Pixel*Frame) : 0.149
Stream size : 626 MiB (84%)
Writing library : XviD 73

Audio
ID : 1
Format : MPEG Audio
Format version : Version 1
Format profile : Layer 3
Codec ID : 55
Codec ID/Hint : MP3
Duration : 2 h 3 min
Bit rate mode : Constant
Bit rate : 128 kb/s
Channel(s) : 2 channels
Sampling rate : 48.0 kHz
Frame rate : 41.667 FPS (1152 SPF)
Compression mode : Lossy
Stream size : 113 MiB (15%)
Alignment : Aligned on interleaves
Interleave, duration : 42 ms (1.00 video frame)
Interleave, preload duratio : 504 ms
Writing library : LAME3.99r
Encoding settings : -m s -V 4 -q 2 -lowpass 17 -b 128



Рип изготовил:
Basmac4
Аватара пользователя
 
Раздал: 1.98 ТБ
Скачал: 3.04 ГБ
Ратио: 668.049
Сообщения: 127
Зарегистрирован: 01 июл 2014, 16:45
  • Торрент
Автор: Basmac4 Хэш: ---
Добавлен: 18 янв 2022, 04:07 Приватный: Нет (DHT включён)
Статус: Проверен
Размер: 747.72 МБ (784 039 936 байт)
Изменил:
---
Скачали: 2888 (Раздающих: 0%)
Причина:
---
Здоровье: 100%
Сидеров: 121 Личеров: 6
Скорость раздачи: 0 байт/сек Скорость скачивания: 0 байт/сек
Последний сидер: 1 месяц 21 день 9 часов 24 минуты 33 секунды назад Последний личер: 1 месяц 21 день 9 часов 24 минуты 33 секунды назад
Для скачивания торрента необходимо зарегистрироваться или войти на трекер.

Форум Статистика

Сейчас этот форум просматривают: нет зарегистрированных пользователей и гости: 13

Настройки

Вернуться в Фильмы / AVI

cron
Ресурс не предоставляет электронные версии произведений, а занимается лишь коллекционированием и каталогизацией ссылок, присылаемых и публикуемых на форуме нашими читателями. Если вы являетесь правообладателем какого-либо представленного материала и не желаете чтобы ссылка на него находилась в нашем каталоге, свяжитесь с нами и мы незамедлительно удалим её. Файлы для обмена на трекере предоставлены пользователями сайта, и администрация не несёт ответственности за их содержание. Просьба не заливать файлы, защищенные авторскими правами, а также файлы нелегального содержания!