Модераторы: K15, Младшие модераторы, Модераторы

Ниндзя из Беверли Хиллз / Beverly Hills Ninja (Деннис Дуган / Dennis Dugan) [1997, США, боевик, комедия, WEB-DLRip] MVO (ViP Comedy)

Сообщение 7Max7 » 23 авг 2020, 01:05

Ниндзя из Беверли Хиллз / Beverly Hills Ninja
«Kung fool!»


#777

Год выпуска: 1997
Страна: США
Продолжительность: 01:28:37
Перевод: Профессиональный (многоголосый закадровый) ViP Comedy
Жанр: боевик, комедия

Режиссер: Деннис Дуган / Dennis Dugan

В ролях: Крис Фарли, Николетт Шеридан, Робин Шоу, Натаниель Паркер, О Сун-тхэк, Кит Кук, Крис Рок, Франсуа Чау, Дэйл Исимото

Описание:
Ниндзя — таинственный, пугающий и очень хитрый воин тьмы, который ничего не боится и не поддается контролю. Таким хотел видеть своего приемного сына наставник ниндзя, случайно подобрав младенца в лесу. И хотя из него и вырос толстый болван, он все равно должен стать воином и выполнить миссию ниндзя — вызволить из беды голливудскую красотку.
Но здесь, в Беверли Хиллз, ему приходится столкнуться с настоящими убийцами, которые знают тайны кунг-фу получше его...




Доп. информация: Запись и подготовка звука: aVa-43
Звук записан с телеканала "ViP Comedy". Переведено и озвучено студией "SDI Media" в 2018 году.
Качество видео: WEB-DLRip (Исходник WEB-DL 1080p)
Формат видео: AVI
Видео: MPEG-4 Visual / 720x400 (16:9), 23.976 fps, XviD 73 ~2112 kbps avg, 0.306 bit/pixel
Аудио: Russian | AC-3 / 48 kHz / 2.0 Ch / 192 kbps / 16-bit | MVO | ViP Comedy (студия "SDI Media" 2018г.)
Субтитры: нет
Оригинальная аудиодорожка: нет

Код: Выделить всё
General
Complete name                  : D:\ninja\Beverly.Hills.Ninja.1997.MVO.WEB-DLRip.avi
Format                         : AVI
Format/Info                    : Audio Video Interleave
File size                      : 1.43 GiB
Duration                       : 1 h 28 min
Overall bit rate               : 2 313 kb/s
Writing library                : VirtualDub build 32842/release
Video
ID                             : 0
Format                         : MPEG-4 Visual
Format profile                 : Advanced Simple@L5
Format settings, BVOP          : 1
Format settings, QPel          : No
Format settings, GMC           : No warppoints
Format settings, Matrix        : Default (MPEG)
Codec ID                       : XVID
Codec ID/Hint                  : XviD
Duration                       : 1 h 28 min
Bit rate                       : 2 112 kb/s
Width                          : 720 pixels
Height                         : 400 pixels
Display aspect ratio           : 16:9
Frame rate                     : 23.976 (24000/1001) FPS
Color space                    : YUV
Chroma subsampling             : 4:2:0
Bit depth                      : 8 bits
Scan type                      : Progressive
Compression mode               : Lossy
Bits/(Pixel*Frame)             : 0.306
Stream size                    : 1.31 GiB (91%)
Writing library                : XviD 73
Audio
ID                             : 1
Format                         : AC-3
Format/Info                    : Audio Coding 3
Format settings, Endianness    : Big
Codec ID                       : 2000
Duration                       : 1 h 28 min
Bit rate mode                  : Constant
Bit rate                       : 192 kb/s
Channel(s)                     : 2 channels
Channel positions              : Front: L R
Sampling rate                  : 48.0 kHz
Frame rate                     : 31.250 FPS (1536 SPF)
Bit depth                      : 16 bits
Compression mode               : Lossy
Stream size                    : 122 MiB (8%)
Alignment                      : Aligned on interleaves
Interleave, duration           : 42  ms (1.00 video frame)
Interleave, preload duration   : 512  ms
Service kind                   : Complete Main
7Max7
Аватара пользователя
 
Раздал: 491.08 ГБ
Скачал: 4.25 ГБ
Ратио: 115.495
Сообщения: 481
Зарегистрирован: 14 фев 2014, 18:28
  • Торрент
Автор: 7Max7 Хэш: ---
Добавлен: 23 авг 2020, 01:05 Приватный: Нет (DHT включён)
Статус: Проверен
Размер: 1.43 ГБ (1 537 734 860 байт)
Изменил:
---
Скачали: 1 (Раздающих: 0%)
Причина:
---
Здоровье: 100%
Сидеров: 1 Личеров: 0
Скорость раздачи: 0 байт/сек Скорость скачивания: 0 байт/сек
Последний сидер: 16 дней 18 часов 41 минуту 19 секунд назад Последний личер: 1 год 14 часов 42 минуты 13 секунд назад
Для скачивания торрента необходимо зарегистрироваться или войти на трекер.

Форум Статистика

Сейчас этот форум просматривают: нет зарегистрированных пользователей и гости: 7

Настройки

Вернуться в Фильмы / AVI

cron
Ресурс не предоставляет электронные версии произведений, а занимается лишь коллекционированием и каталогизацией ссылок, присылаемых и публикуемых на форуме нашими читателями. Если вы являетесь правообладателем какого-либо представленного материала и не желаете чтобы ссылка на него находилась в нашем каталоге, свяжитесь с нами и мы незамедлительно удалим её. Файлы для обмена на трекере предоставлены пользователями сайта, и администрация не несёт ответственности за их содержание. Просьба не заливать файлы, защищенные авторскими правами, а также файлы нелегального содержания!
tracker_cron