Модераторы: K15, Модераторы, Младшие модераторы

Потерянная пуля / Balle perdue (Гийом Пьерре / Guillaume Pierret) [2020, боевик, триллер, криминал, WEB-DLRip] MVO (Muzoboz)

Сообщение 7Max7 » 15 авг 2020, 20:10

Потерянная пуля / Balle perdue


#777

Год выпуска: 2020
Страна: Франция
Продолжительность: 01:33:06
Перевод: Любительский (многоголосый,закадровый) [@MUZOBOZ@]
Жанр: боевик, триллер, криминал

Режиссёр: Гийом Пьерре / Guillaume Pierret

В главных ролях:
Альбан Ленуар, Николя Дювошель, Рамзи Бедиа, Стефи Сельма, Род Парадо, Себастьян Лаланн, Arthur Aspaturian, Патрик Медиони, Александр Филип, Стивен Скардиккьо

Описание:
Мелкий преступник, ставший полицейским механиком для оперативной группы go fast, вынужден защищать свою невиновность, когда его наставник убит грязными полицейскими.

Рекламы нет.

Видео исходник: Balle.perdue.2020.FRENCH.1080p.WEB.H264-EXTREME
Качество видео: WEB-DLRip
Формат видео: АVI
Видео: 720x304 (2.35:1),25.000 fps, XviD ~ 2028 kbps avg, 0.371 bit/pixel
Аудио : 48 kHz, AC3 Dolby Digital, 2.0 ch, ~ 192 kbps
Субтитры: Нет

Доп. информация: Видео рип и работа со звуком[u][maksciganov]
Спасибо студии [@MUZOBOZ@] за перевод фильма.
Код: Выделить всё
General
Complete name                       : Потерянная пуля.2020_by_maksciganov.avi
Format                              : AVI
Format/Info                         : Audio Video Interleave
File size                           : 1.45 GiB
Duration                            : 1h 33mn
Overall bit rate                    : 2 230 Kbps
Writing application                 : VirtualDubMod 1.5.10.3 | www.virtualdub-fr.org || (build 2550/release)
Writing library                     : VirtualDubMod build 2550/release
Video
ID                                  : 0
Format                              : MPEG-4 Visual
Format profile                      : Advanced Simple@L5
Format settings, BVOP               : 1
Format settings, QPel               : No
Format settings, GMC                : No warppoints
Format settings, Matrix             : Default (MPEG)
Codec ID                            : XVID
Codec ID/Hint                       : XviD
Duration                            : 1h 33mn
Bit rate                            : 2 028 Kbps
Width                               : 720 pixels
Height                              : 304 pixels
Display aspect ratio                : 2.35:1
Frame rate                          : 25.000 fps
Color space                         : YUV
Chroma subsampling                  : 4:2:0
Bit depth                           : 8 bits
Scan type                           : Progressive
Compression mode                    : Lossy
Bits/(Pixel*Frame)                  : 0.371
Stream size                         : 1.32 GiB (91%)
Writing library                     : XviD 1.2.1 (UTC 2008-12-04)
Audio
ID                                  : 1
Format                              : AC-3
Format/Info                         : Audio Coding 3
Mode extension                      : CM (complete main)
Codec ID                            : 2000
Duration                            : 1h 33mn
Bit rate mode                       : Constant
Bit rate                            : 192 Kbps
Channel(s)                          : 2 channels
Channel positions                   : Front: L R
Sampling rate                       : 48.0 KHz
Bit depth                           : 16 bits
Compression mode                    : Lossy
Stream size                         : 128 MiB (9%)
Alignment                           : Split accross interleaves
Interleave, duration                : 40 ms (1.00 video frame)
Interleave, preload duration        : 500 ms
7Max7
Аватара пользователя
 
Раздал: 491.08 ГБ
Скачал: 4.25 ГБ
Ратио: 115.495
Сообщения: 481
Зарегистрирован: 14 фев 2014, 18:28
  • Торрент
Автор: 7Max7 Хэш: ---
Добавлен: 15 авг 2020, 20:09 Приватный: Нет (DHT включён)
Статус: Проверен
Размер: 1.45 ГБ (1 556 895 744 байт)
Изменил:
---
Скачали: 0 (Раздающих: 0%)
Причина:
---
Здоровье: 100%
Сидеров: 21 Личеров: 7
Скорость раздачи: 0 байт/сек Скорость скачивания: 0 байт/сек
Последний сидер: 1 месяц 21 день 17 часов 42 минуты 41 секунду назад Последний личер: 1 месяц 21 день 17 часов 42 минуты 41 секунду назад
Для скачивания торрента необходимо зарегистрироваться или войти на трекер.

Форум Статистика

Сейчас этот форум просматривают: нет зарегистрированных пользователей и гости: 11

Настройки

Вернуться в Фильмы / AVI

cron
Ресурс не предоставляет электронные версии произведений, а занимается лишь коллекционированием и каталогизацией ссылок, присылаемых и публикуемых на форуме нашими читателями. Если вы являетесь правообладателем какого-либо представленного материала и не желаете чтобы ссылка на него находилась в нашем каталоге, свяжитесь с нами и мы незамедлительно удалим её. Файлы для обмена на трекере предоставлены пользователями сайта, и администрация не несёт ответственности за их содержание. Просьба не заливать файлы, защищенные авторскими правами, а также файлы нелегального содержания!