Модераторы: K15, Модераторы, Младшие модераторы

Не отпускай / Don't Let Go (Джейкоб Аарон Эстес) [2019, Триллер, детектив, фантастика, криминал, BDRip | P]

Сообщение Zina » 21 мар 2020, 23:05

Не отпускай / Don't Let Go


#777

Информация о фильме
Название: Не отпускай
Оригинальное название: Don't Let Go
Год выхода: 2019
Страна: США
Перевод: Профессиональный (многоголосый закадровый) | Онлайн кинотеатр
Продолжительность: 01:43:25
Жанр: Триллер, детектив, фантастика, криминал

Режиссер: Джейкоб Аарон Эстес

В ролях:
Дэвид Ойелоуо, Сторм Рейд, Майкелти Уильямсон, Альфред Молина, Брайан Тайри Генри, Шинель Азоро, Байрон Манн, Эйприл Грэйс, Омар Лейва, Саркис Нинос и др.

О фильме:
Детектив Джек Рэдклифф получает тревожный звонок от племянницы Эшли. Он спешит на помощь, но не успевает — девочка и её семья жестоко убиты. Джек берется за расследование, но внезапно ему опять звонит Эшли.



Файл
Фомат: AVI
Качество: BDRip | Dont.Let.Go.2019.1080p.BluRay.REMUX.AVC.DTS-HD.MA.5.1-FGT
Видео: Xvid 73, 720x304, 1812 kbps, 23,976 fps
Звук: русский, AC3, 2.0 ch, 48 kHz, 192 kbps | Онлайн кинотеатр
Субтитры: русские (форс. вшитые)

Общее
Полное имя : G:Torrent2NeOtpuskajBDRip.avi
Формат : AVI
Формат/Информация : Audio Video Interleave
Размер файла : 1,45 Гбайт
Продолжительность : 1 ч. 43 м.
Общий поток : 2013 Кбит/сек
Программа кодирования : VirtualDubMod 1.5.10.3 | http://www.virtualdub-fr.org || (build 2550/release)
Библиотека кодирования : VirtualDubMod build 2550/release

Видео
Идентификатор : 0
Формат : MPEG-4 Visual
Профиль формата : Advanced Simple@L5
Настройки формата : BVOP1 / Custom Matrix
Параметр BVOP формата : 1
Параметр QPel формата : Нет
Параметр GMC формата : Без точки перехода
Параметр матрицы формата : Выборочная
Идентификатор кодека : XVID
Идентификатор кодека/Подсказка : XviD
Продолжительность : 1 ч. 43 м.
Битрейт : 1812 Кбит/сек
Ширина : 720 пикселей
Высота : 304 пикселя
Соотношение сторон : 2,35:1
Частота кадров : 23,976 (24000/1001) кадра/сек
Цветовое пространство : YUV
Субдискретизация насыщенности : 4:2:0
Битовая глубина : 8 бит
Тип развёртки : Прогрессивная
Метод сжатия : С потерями
Бит/(Пиксели*Кадры) : 0.345
Размер потока : 1,31 Гбайт (90%)
Библиотека кодирования : XviD 73

Аудио
Идентификатор : 1
Формат : AC-3
Формат/Информация : Audio Coding 3
Параметр Endianness формата : Big
Идентификатор кодека : 2000
Продолжительность : 1 ч. 43 м.
Вид битрейта : Постоянный
Битрейт : 192 Кбит/сек
Каналы : 2 канала
Расположение каналов : Front: L R
Частота : 48,0 КГц
Частота кадров : 31,250 кадров/сек (1536 SPF)
Битовая глубина : 16 бит
Метод сжатия : С потерями
Размер потока : 142 Мбайт (10%)
Выравнивание : Разделение по промежуткам
Продолжительность промежутка : 42 мс. (1,00 видеокадр)
Время предзагрузки промежутка : 500 мс.


Рип и релиз от:
Zina
Аватара пользователя
 
Раздал: 0 байт
Скачал: 0 байт
Ратио: Inf.
Сообщения: 254
Зарегистрирован: 01 июл 2014, 16:52
  • Торрент
Автор: Zina Хэш: ---
Добавлен: 21 мар 2020, 23:05 Приватный: Нет (DHT включён)
Статус: Проверен
Размер: 1.45 ГБ (1 561 833 472 байт)
Изменил:
---
Скачали: 10340 (Раздающих: 0%)
Причина:
---
Здоровье: 100%
Сидеров: 983 Личеров: 76
Скорость раздачи: 0 байт/сек Скорость скачивания: 0 байт/сек
Последний сидер: 1 месяц 20 дней 2 часа 14 минут 20 секунд назад Последний личер: 1 месяц 20 дней 2 часа 14 минут 20 секунд назад
Для скачивания торрента необходимо зарегистрироваться или войти на трекер.

Форум Статистика

Кто сейчас на конференции

Сейчас этот форум просматривают: нет зарегистрированных пользователей и гости: 8

  • Похожие торренты
    Ответы
    Просмотры
    Последнее сообщение

Настройки

Вернуться в Фильмы / AVI

cron
Ресурс не предоставляет электронные версии произведений, а занимается лишь коллекционированием и каталогизацией ссылок, присылаемых и публикуемых на форуме нашими читателями. Если вы являетесь правообладателем какого-либо представленного материала и не желаете чтобы ссылка на него находилась в нашем каталоге, свяжитесь с нами и мы незамедлительно удалим её. Файлы для обмена на трекере предоставлены пользователями сайта, и администрация не несёт ответственности за их содержание. Просьба не заливать файлы, защищенные авторскими правами, а также файлы нелегального содержания!
tracker_cron