Модераторы: K15, Модераторы, Младшие модераторы

Вальтер / Охранник / Walter (Варант Суджян) [2019, комедия, WEB-DLRip | L]

Сообщение Sovetnik » 05 дек 2019, 11:00

Вальтер / Охранник / Walter


#777


Год выпуска: 2019
Страна: Франция Бельгия
Производство: Scope Pictures, SofiTVciné 5, Vertigo
Продолжительность: 01:35:24
Перевод: Любительский (многоголосый, закадровый) | AlphaProject
Субтитры: нет
Жанр: комедия

Режиссер: Варант Суджян

В ролях: Исака Савадого, Альбан Иванов, Жюдит Эль Зейн, Давид Салль, Александр Антонио, Сэмюэл Джиан, Карим Джебли, Нордин Салхи

Описание:
Для Горана и его подельников план был почти идеален: остаться на ночь в супермаркете и ограбить ювелирный магазин. Но никто не ожидал появления необычного охранника - Вальтера, бывшего военного командира.., который готов отправить всю компанию прямиком в ад...





Качество: WEB-DLRip
Формат: AVI
Видео кодек: XviD
Аудио кодек: АС3
Видео: 720x304 (2.35:1), 24.000 fps, XviD build 73 ~1982 kbps avg, 0.377 bit/pixel
Аудио: 48.0 kHz, AC3 Dolby Digital, 2/0 (L,R) ch, ~192 kbps | RUS / AlphaProject

Дата премьеры (мир): 13 марта 2019

Релиз от: Dalemake
General
Полное имя : Walter_2019_WEB-DLRip_MVO_by_Dalemake.avi
Формат : AVI
Формат/Информация : Audio Video Interleave
Размер файла : 1,46 Гбайт
Продолжительность : 1 ч. 35 м.
Общий поток : 2184 Кбит/сек
Программа кодирования : VirtualDubMod 1.5.10.3 | (build 2550/release)
Библиотека кодирования : VirtualDubMod build 2550/release

Видео
Идентификатор : 0
Формат : MPEG-4 Visual
Профиль формата : Advanced Simple@L5
Настройки формата : BVOP1 / Custom Matrix
Параметр BVOP формата : 1
Параметр QPel формата : Нет
Параметр GMC формата : Без точки перехода
Параметр матрицы формата : Выборочная
Идентификатор кодека : XVID
Идентификатор кодека/Подсказка : XviD
Продолжительность : 1 ч. 35 м.
Битрейт : 1982 Кбит/сек
Ширина : 720 пикселей
Высота : 304 пикселя
Соотношение сторон : 2,35:1
Частота кадров : 24,000 кадра/сек
Цветовое пространство : YUV
Субдискретизация насыщенности : 4:2:0
Битовая глубина : 8 бит
Тип развёртки : Прогрессивная
Метод сжатия : С потерями
Бит/(Пиксели*Кадры) : 0.377
Размер потока : 1,32 Гбайт (91%)
Библиотека кодирования : XviD 73

Аудио
Идентификатор : 1
Формат : AC-3
Формат/Информация : Audio Coding 3
Коммерческое название : Dolby Digital
Идентификатор кодека : 2000
Продолжительность : 1 ч. 35 м.
Вид битрейта : Постоянный
Битрейт : 192 Кбит/сек
Каналы : 2 канала
ChannelLayout : L R
Частота : 48,0 КГц
Частота кадров : 31,250 кадров/сек (1536 SPF)
Битовая глубина : 16 бит
Метод сжатия : С потерями
Размер потока : 131 Мбайт (9%)
Выравнивание : Разделение по промежуткам
Продолжительность промежутка : 42 мс. (1,00 видеокадр)
Время предзагрузки промежутка : 500 мс.
Sovetnik
Аватара пользователя
 
Раздал: 32.13 ТБ
Скачал: 13.11 ГБ
Ратио: 2510.256
Сообщения: 1760
Зарегистрирован: 13 фев 2014, 05:19
  • Торрент
Автор: Sovetnik Хэш: ---
Добавлен: 05 дек 2019, 11:00 Приватный: Нет (DHT включён)
Статус: Проверен
Размер: 1.46 ГБ (1 562 603 520 байт)
Изменил:
---
Скачали: 10 (Раздающих: 0%)
Причина:
---
Здоровье: 100%
Сидеров: 140 Личеров: 20
Скорость раздачи: 0 байт/сек Скорость скачивания: 0 байт/сек
Последний сидер: 6 месяцев 4 дня 18 часов 39 минут 27 секунд назад Последний личер: 6 месяцев 4 дня 18 часов 39 минут 27 секунд назад
Для скачивания торрента необходимо зарегистрироваться или войти на трекер.

Форум Статистика

Кто сейчас на конференции

Сейчас этот форум просматривают: нет зарегистрированных пользователей и гости: 11

  • Похожие торренты
    Ответы
    Просмотры
    Последнее сообщение

Настройки

Вернуться в Фильмы / AVI

cron
Ресурс не предоставляет электронные версии произведений, а занимается лишь коллекционированием и каталогизацией ссылок, присылаемых и публикуемых на форуме нашими читателями. Если вы являетесь правообладателем какого-либо представленного материала и не желаете чтобы ссылка на него находилась в нашем каталоге, свяжитесь с нами и мы незамедлительно удалим её. Файлы для обмена на трекере предоставлены пользователями сайта, и администрация не несёт ответственности за их содержание. Просьба не заливать файлы, защищенные авторскими правами, а также файлы нелегального содержания!