Модераторы: Модераторы, Младшие модераторы

Опасные секреты / Official Secrets (Гэвин Худ) [2019, триллер, драма, мелодрама, военный, биография, WEB-DLRip | D | Line]

Сообщение Крутой перец » 13 ноя 2019, 20:19

Опасные секреты / Official Secrets


#777

Год выпуска: 2019
Страна: США Великобритания
Производство: The Gordon Company, Classified Films, GS Media, Screen Yorkshire
Продолжительность: 01:52:04
Перевод: Профессиональный (дублированный) | чистый звук
Субтитры: нет
Жанр: триллер, драма, мелодрама, военный, биография

Режиссер: Гэвин Худ

Авторы сценария: Гэвин Худ, Грегори Бернштейн, Сара Бернштейн

В ролях:
Кира Найтли, Рэйф Файнс, Мэттью Гуд, Кэтерин Келли, Индира Варма, Мэтт Смит, Рис Иванс, МайАнна Бёринг, Кеннет Крэнэм, Джек Фартинг, Тэмсин Грег, Хэтти Морахэн, Джереми Нортэм, Конлет Хилл, Ханако Футман, Шон Дули

Описание:
Сотрудница британской разведки Кэтрин Ган обнародует засекреченное электронное письмо, в котором изобличаются американское и британское правительства в их незаконном вторжении в Ирак. Кэтрин и её адвокаты пытаются оправдать её действия в суде — ей вменяют нарушение Закона о государственной тайне. Под угрозой её жизнь, свобода и брак, но ей необходимо отстоять свои убеждения…







Качество: WEB-DLRip
Формат: AVI
Видео кодек: XviD
Аудио кодек: MP3
Видео: 720x304 (2.35:1), 23.976 fps, XviD ~1 541 kbps avg
Аудио: 44.1 kHz, MPEG Layer 3, 2 ch, ~224 kbps avg

Дата премьеры (мир): 28 января 2019
Дата премьеры (РФ): 5 сентября 2019, «Наше Кино»

Релиз от: Effx
Дополнительная информация: релиз создан исключительно в ознакомительных целях!
General
Complete name : Official.Secrets.2019.D.WEB-DLRip-Effx.avi
Format : AVI
Format/Info : Audio Video Interleave
Format profile : OpenDML
File size : 1.39 GiB
Duration : 1 h 52 min
Overall bit rate : 1 779 kb/s
Movie name : Official.Secrets.2019.D.WEB-DLRip.14OOMB
Recorded date : 2019-11-12
Writing application : msl

Video
ID : 0
Format : MPEG-4 Visual
Format profile : Advanced Simple@L5
Format settings : BVOP2
Format settings, BVOP : 2
Format settings, QPel : No
Format settings, GMC : No warppoints
Format settings, Matrix : Default (H.263)
Muxing mode : Packed bitstream
Codec ID : XVID
Codec ID/Hint : XviD
Duration : 1 h 52 min
Bit rate : 1 541 kb/s
Width : 720 pixels
Height : 304 pixels
Display aspect ratio : 2.35:1
Frame rate : 23.976 (24000/1001) FPS
Color space : YUV
Chroma subsampling : 4:2:0
Bit depth : 8 bits
Scan type : Progressive
Compression mode : Lossy
Bits/(Pixel*Frame) : 0.294
Stream size : 1.21 GiB (87%)
Writing library : XviD 1.2.1 (UTC 2008-12-04)

Audio
ID : 1
Format : MPEG Audio
Format version : Version 1
Format profile : Layer 3
Format settings : Joint stereo / MS Stereo
Codec ID : 55
Codec ID/Hint : MP3
Duration : 1 h 52 min
Bit rate mode : Constant
Bit rate : 224 kb/s
Channel(s) : 2 channels
Sampling rate : 44.1 kHz
Compression mode : Lossy
Stream size : 180 MiB (13%)
Alignment : Split across interleaves
Interleave, duration : 26 ms (0.63 video frame)
Крутой перец
Аватара пользователя
 
Раздал: 265.74 ГБ
Скачал: 1.45 ГБ
Ратио: 183.536
Сообщения: 33
Зарегистрирован: 10 июл 2014, 11:59
  • Торрент
Автор: Крутой перец Хэш: ---
Добавлен: 13 ноя 2019, 20:19 Приватный: Нет (DHT включён)
Статус: Проверен
Размер: 1.42 ГБ (1 528 277 622 байт)
Изменил:
---
Скачали: 0 (Раздающих: 0%)
Причина:
---
Здоровье: 0%
Сидеров: 0 Личеров: 0
Скорость раздачи: 0 байт/сек Скорость скачивания: 0 байт/сек
Последний сидер: Нет Последний личер: Нет
Для скачивания торрента необходимо зарегистрироваться или войти на трекер.

Форум Статистика

Кто сейчас на конференции

Сейчас этот форум просматривают: нет зарегистрированных пользователей и гости: 5

  • Похожие торренты
    Ответы
    Просмотры
    Последнее сообщение

Настройки

Вернуться в Фильмы / AVI

Ресурс не предоставляет электронные версии произведений, а занимается лишь коллекционированием и каталогизацией ссылок, присылаемых и публикуемых на форуме нашими читателями. Если вы являетесь правообладателем какого-либо представленного материала и не желаете чтобы ссылка на него находилась в нашем каталоге, свяжитесь с нами и мы незамедлительно удалим её. Файлы для обмена на трекере предоставлены пользователями сайта, и администрация не несёт ответственности за их содержание. Просьба не заливать файлы, защищенные авторскими правами, а также файлы нелегального содержания!
cron