Модераторы: Модераторы, Младшие модераторы

Zомбилэнд: Контрольный выстрел / Zombieland: Double Tap (Рубен Фляйшер) [2019, ужасы, боевик, комедия, TS | D]

Сообщение Крутой перец » 13 ноя 2019, 19:49

Zомбилэнд: Контрольный выстрел / Zombieland: Double Tap


#777

Год выпуска: 2019
Страна: США
Производство: Columbia Pictures Corporation, Pariah
Продолжительность: 01:38:41
Перевод: Профессиональный (дублированный)
Субтитры: нет
Жанр: ужасы, боевик, комедия


Режиссер: Рубен Фляйшер

Авторы сценария: Дэйв Каллахэм, Ретт Риз, Пол Верник

В ролях:
Джесси Айзенберг, Вуди Харрельсон, Эмма Стоун, Эбигейл Бреслин, Зои Дойч, Эван Джогиа, Розарио Доусон, Люк Уилсон, Томас Миддлдитч, Виктория Холл, Виктор Ривера, Йен Грегг, Рэйчел Латтрелл, Джон Диксон, Ронни Мэтью, Дэвид Фляйшер, Билл Мюррей

Описание:
Беспощадная и бесстрашная четвёрка охотников на зомби продолжает свое путешествие в глубь страны. На этот раз им предстоит сразиться не только с новыми видами живых мертвецов, но и вступить в схватку с другими выжившими, которые настроены совсем не дружелюбно. Кроме того, в собственных рядах охотников намечается серьёзный разлад...







Качество: TS
Формат: AVI
Видео кодек: XviD
Аудио кодек: MP3
Видео: 720x272 (2.647), 23.976 fps, XviD ~1 668 kbps avg
Аудио: 44.1 kHz, MPEG Layer 3, 2 ch, ~224 kbps avg

Дата премьеры (мир): 9 октября 2019
Дата премьеры (РФ): 24 октября 2019, «WDSSPR»


Релиз от: Effx
Дополнительная информация: релиз создан исключительно в ознакомительных целях!
General
Complete name : Zombieland.Double.Tap.2019.D.TS-Effx.avi
Format : AVI
Format/Info : Audio Video Interleave
Format profile : OpenDML
File size : 1.31 GiB
Duration : 1 h 38 min
Overall bit rate : 1 907 kb/s
Movie name : Zombieland.Double.Tap.2019.D.TS.14OOMB
Recorded date : 2019-11-10
Writing application : msl

Video
ID : 0
Format : MPEG-4 Visual
Format profile : Advanced Simple@L5
Format settings : BVOP2
Format settings, BVOP : 2
Format settings, QPel : No
Format settings, GMC : No warppoints
Format settings, Matrix : Default (H.263)
Muxing mode : Packed bitstream
Codec ID : XVID
Codec ID/Hint : XviD
Duration : 1 h 38 min
Bit rate : 1 668 kb/s
Width : 720 pixels
Height : 272 pixels
Display aspect ratio : 2.647
Frame rate : 23.976 (24000/1001) FPS
Color space : YUV
Chroma subsampling : 4:2:0
Bit depth : 8 bits
Scan type : Progressive
Compression mode : Lossy
Bits/(Pixel*Frame) : 0.355
Stream size : 1.15 GiB (87%)
Writing library : XviD 1.2.1 (UTC 2008-12-04)

Audio
ID : 1
Format : MPEG Audio
Format version : Version 1
Format profile : Layer 3
Format settings : Joint stereo / MS Stereo
Codec ID : 55
Codec ID/Hint : MP3
Duration : 1 h 38 min
Bit rate mode : Constant
Bit rate : 224 kb/s
Channel(s) : 2 channels
Sampling rate : 44.1 kHz
Compression mode : Lossy
Stream size : 158 MiB (12%)
Alignment : Split across interleaves
Interleave, duration : 26 ms (0.63 video frame)
Writing library : LAME3.100U
Крутой перец
Аватара пользователя
 
Раздал: 265.74 ГБ
Скачал: 1.45 ГБ
Ратио: 183.536
Сообщения: 33
Зарегистрирован: 10 июл 2014, 11:59
  • Торрент
Автор: Крутой перец Хэш: ---
Добавлен: 13 ноя 2019, 19:49 Приватный: Нет (DHT включён)
Статус: Проверен
Размер: 1.31 ГБ (1 411 252 262 байт)
Изменил:
---
Скачали: 0 (Раздающих: 0%)
Причина:
---
Здоровье: 0%
Сидеров: 0 Личеров: 0
Скорость раздачи: 0 байт/сек Скорость скачивания: 0 байт/сек
Последний сидер: Нет Последний личер: Нет
Для скачивания торрента необходимо зарегистрироваться или войти на трекер.

Форум Статистика

Кто сейчас на конференции

Сейчас этот форум просматривают: нет зарегистрированных пользователей и гости: 4

  • Похожие торренты
    Ответы
    Просмотры
    Последнее сообщение

Настройки

Вернуться в Фильмы / AVI

Ресурс не предоставляет электронные версии произведений, а занимается лишь коллекционированием и каталогизацией ссылок, присылаемых и публикуемых на форуме нашими читателями. Если вы являетесь правообладателем какого-либо представленного материала и не желаете чтобы ссылка на него находилась в нашем каталоге, свяжитесь с нами и мы незамедлительно удалим её. Файлы для обмена на трекере предоставлены пользователями сайта, и администрация не несёт ответственности за их содержание. Просьба не заливать файлы, защищенные авторскими правами, а также файлы нелегального содержания!
cron