Модераторы: Модераторы, Младшие модераторы

Русская невеста / The Russian Bride (Майкл С. Ойеда / Michael S. Ojeda) [2019, США, ужасы, триллер, WEB-DLRip] MVO (HDRezka Studio) + Original (Eng)

Сообщение Sovetnik » 26 апр 2019, 22:57

  • Постеры
Русская невеста / The Russian Bride




Год выхода: 2019
Страна: США
Продолжительность: 01:41:23
Перевод: Любительский (многоголосый закадровый) HDRezka Studio
Субтитры: Английские (хардсаб на Русскую речь)
Оригинальная аудиодорожка: Английская
Жанр: ужасы, триллер

Режиссер:
Майкл С. Ойеда / Michael S. Ojeda

В ролях:
Корбин Бернсен, Оксана Орлан, Кристина Пименова, Лиза Гудман, Майкл Роберт Брэндон, Элисон Корман, Кинэн Джонстон, Грегори О'Галлахер, Ефим Сомен, Кеннет Г. Боден

О фильме:
Русская женщина едет в Америку со своей дочерью, чтобы выйти замуж за миллиардера-затворника. Однако идиллия длится недолго: супруг оказывается психопатом.

| IMDB | КиноПоиск | Сэмпл |

Качество: WEB-DLRip
Формат: AVI
Видео: 704x320 (2.20:1), 23.976 fps, XviD build 67 ~1664 kbps avg, 0.31 bit/pixel
Аудио #1: 48 kHz, AC3 Dolby Digital, 2/0 (L,R) ch, ~192 kbps avg (RUS)
Аудио #2: 48 kHz, AC3 Dolby Digital, 2/0 (L,R) ch, ~192 kbps avg (ENG)








Код:
Код: Выделить всё
Полное имя                               : D:Russkaya_nevesta_2019_WEB-DLRip_MVO_by_Dalemake.avi
Формат                                   : AVI
Формат/Информация                        : Audio Video Interleave
Размер файла                             : 1,46 Гбайт
Продолжительность                        : 1 ч. 41 м.
Общий поток                              : 2063 Кбит/сек
Программа кодирования                    : VirtualDubMod 1.5.10.3 | www.virtualdub-fr.org || (build 2550/release)
Библиотека кодирования                   : VirtualDubMod build 2550/release
Видео
Идентификатор                            : 0
Формат                                   : MPEG-4 Visual
Профиль формата                          : Advanced Simple@L5
Параметр BVOP формата                    : 1
Параметр QPel формата                    : Нет
Параметр GMC формата                     : Без точки перехода
Параметр матрицы формата                 : Выборочная
Идентификатор кодека                     : XVID
Идентификатор кодека/Подсказка           : XviD
Продолжительность                        : 1 ч. 41 м.
Битрейт                                  : 1665 Кбит/сек
Ширина                                   : 704 пикселя
Высота                                   : 320 пикселей
Соотношение сторон                       : 2,2:1
Частота кадров                           : 23,976 кадра/сек
Цветовое пространство                    : YUV
Субдискретизация насыщенности            : 4:2:0
Битовая глубина                          : 8 бит
Тип развёртки                            : Прогрессивная
Метод сжатия                             : С потерями
Бит/(Пиксели*Кадры)                      : 0.308
Размер потока                            : 1,18 Гбайт (81%)
Библиотека кодирования                   : XviD 67
Аудио #1
Идентификатор                            : 1
Формат                                   : AC-3
Формат/Информация                        : Audio Coding 3
Расширение режима                        : CM (complete main)
Параметр Endianness формата              : Big
Идентификатор кодека                     : 2000
Продолжительность                        : 1 ч. 41 м.
Вид битрейта                             : Постоянный
Битрейт                                  : 192 Кбит/сек
Каналы                                   : 2 канала
Расположение каналов                     : Front: L R
Частота                                  : 48,0 КГц
Битовая глубина                          : 16 бит
Метод сжатия                             : С потерями
Размер потока                            : 139 Мбайт (9%)
Выравнивание                             : Разделение по промежуткам
Продолжительность промежутка             : 42  мс. (1,00 видеокадр)
Время предзагрузки промежутка            : 500  мс.
Аудио #2
Идентификатор                            : 2
Формат                                   : AC-3
Формат/Информация                        : Audio Coding 3
Расширение режима                        : CM (complete main)
Параметр Endianness формата              : Big
Идентификатор кодека                     : 2000
Продолжительность                        : 1 ч. 41 м.
Вид битрейта                             : Постоянный
Битрейт                                  : 192 Кбит/сек
Каналы                                   : 2 канала
Расположение каналов                     : Front: L R
Частота                                  : 48,0 КГц
Битовая глубина                          : 16 бит
Метод сжатия                             : С потерями
Размер потока                            : 139 Мбайт (9%)
Выравнивание                             : Разделение по промежуткам
Продолжительность промежутка             : 42  мс. (1,00 видеокадр)
Время предзагрузки промежутка            : 500  мс.
Sovetnik
Аватара пользователя
 
Раздал: 32.13 ТБ
Скачал: 13.11 ГБ
Ратио: 2510.256
Сообщения: 1310
Зарегистрирован: 13 фев 2014, 05:19
  • Торрент
Автор: Sovetnik Хэш: ---
Добавлен: 26 апр 2019, 22:57 Приватный: Нет (DHT включён)
Статус: Проверен
Размер: 1.46 ГБ (1 568 958 464 байт)
Изменил:
---
Скачали: 0 (Раздающих: 0%)
Причина:
---
Здоровье: 0%
Сидеров: 0 Личеров: 0
Скорость раздачи: 0 байт/сек Скорость скачивания: 0 байт/сек
Последний сидер: Нет Последний личер: Нет
Для скачивания торрента необходимо зарегистрироваться или войти на трекер.

Форум Статистика

Кто сейчас на конференции

Сейчас этот форум просматривают: нет зарегистрированных пользователей и гости: 3

  • Похожие торренты
    Ответы
    Просмотры
    Последнее сообщение

Настройки

Вернуться в Фильмы / AVI

cron
Ресурс не предоставляет электронные версии произведений, а занимается лишь коллекционированием и каталогизацией ссылок, присылаемых и публикуемых на форуме нашими читателями. Если вы являетесь правообладателем какого-либо представленного материала и не желаете чтобы ссылка на него находилась в нашем каталоге, свяжитесь с нами и мы незамедлительно удалим её. Файлы для обмена на трекере предоставлены пользователями сайта, и администрация не несёт ответственности за их содержание. Просьба не заливать файлы, защищенные авторскими правами, а также файлы нелегального содержания!
cron