Модераторы: K15, Модераторы, Младшие модераторы

Явная ложь / Thumper (Джордан Росс) [2017 Триллер, драма, криминал WEBRip | L2]

Сообщение Sovetnik » 10 ноя 2017, 11:23

  • Постеры
Явная ложь / Thumper



Информация о фильме
Название: Явная ложь
Оригинальное название: Thumper
Год выхода: 2017
Страна: США, Automatik Entertainment, Exhibit, Parliament of Owls
Продолжительность: 01:33:20
Перевод: Любительский (двухголосый закадровый) | RecentFilms
Жанр: Триллер, драма, криминал

Режиссер: Джордан Росс

В ролях: Элайза Тейлор, Лина Хиди, Пабло Шрайбер, Бен Фельдман, Даниэль Уэббер, Грант Уитни Харви, Бретт Райс, Бриджитт Кали, Бритен Далтон, Мика Паркер и другие

О фильме:
Подростки неблагополучного района начинают работать на местного и опасного торговца наркотиками. А в это время в их местности появляется симпотная деваха, со своими "тараканами" в голове..., из-за которой весь их бизнес может рухнуть...



Семпл

Файл
Кодек: XviD
Качество: WEBRip
Видео: 720x400, 23,976 fps, ~1892 Kbps, 0.27 bit/pixel
Звук:
Аудио rus: AC3, 48 kHz, 2 ch, 192 Kbps
Субтитры: отсутствуют

Реклама: присутствует

General
Complete name : F:FilmsThumper.2017.WEBRip.RecentFilmsThumper.2017.WEBRip.RecentFilms.avi
Format : AVI
Format/Info : Audio Video Interleave
Format profile : OpenDML
File size : 1.36 GiB
Duration : 1h 33mn
Overall bit rate : 2 091 Kbps
Writing application : Lavf57.71.100

Video
ID : 0
Format : MPEG-4 Visual
Format profile : Advanced Simple@L5
Format settings, BVOP : 1
Format settings, QPel : No
Format settings, GMC : No warppoints
Format settings, Matrix : Default (H.263)
Codec ID : XVID
Codec ID/Hint : XviD
Duration : 1h 33mn
Bit rate : 1 887 Kbps
Width : 720 pixels
Height : 400 pixels
Display aspect ratio : 16:9
Frame rate : 23.976 (24000/1001) fps
Color space : YUV
Chroma subsampling : 4:2:0
Bit depth : 8 bits
Scan type : Progressive
Compression mode : Lossy
Bits/(Pixel*Frame) : 0.273
Stream size : 1.23 GiB (90%)
Writing library : XviD 67

Audio
ID : 1
Format : AC-3
Format/Info : Audio Coding 3
Mode extension : CM (complete main)
Format settings, Endianness : Big
Codec ID : 2000
Duration : 1h 33mn
Bit rate mode : Constant
Bit rate : 192 Kbps
Channel(s) : 2 channels
Channel positions : Front: L R
Sampling rate : 48.0 KHz
Frame rate : 31.250 fps (1536 spf)
Bit depth : 16 bits
Compression mode : Lossy
Stream size : 128 MiB (9%)
Alignment : Aligned on interleaves
Interleave, duration : 32 ms (0.77 video frame)



Релиз от: RecentFilms
Sovetnik
Аватара пользователя
 
Раздал: 32.13 ТБ
Скачал: 13.11 ГБ
Ратио: 2510.256
Сообщения: 1760
Зарегистрирован: 13 фев 2014, 05:19
  • Торрент
Автор: Sovetnik Хэш: ---
Добавлен: 10 ноя 2017, 11:23 Приватный: Нет (DHT включён)
Статус: Проверен
Размер: 1.36 ГБ (1 463 829 462 байт)
Изменил:
---
Скачали: 0 (Раздающих: 0%)
Причина:
---
Здоровье: 0%
Сидеров: 0 Личеров: 0
Скорость раздачи: 0 байт/сек Скорость скачивания: 0 байт/сек
Последний сидер: Нет Последний личер: Нет
Для скачивания торрента необходимо зарегистрироваться или войти на трекер.

Форум Статистика

Кто сейчас на конференции

Сейчас этот форум просматривают: нет зарегистрированных пользователей и гости: 13

  • Похожие торренты
    Ответы
    Просмотры
    Последнее сообщение

Настройки

Вернуться в Фильмы / AVI

cron
Ресурс не предоставляет электронные версии произведений, а занимается лишь коллекционированием и каталогизацией ссылок, присылаемых и публикуемых на форуме нашими читателями. Если вы являетесь правообладателем какого-либо представленного материала и не желаете чтобы ссылка на него находилась в нашем каталоге, свяжитесь с нами и мы незамедлительно удалим её. Файлы для обмена на трекере предоставлены пользователями сайта, и администрация не несёт ответственности за их содержание. Просьба не заливать файлы, защищенные авторскими правами, а также файлы нелегального содержания!