Модераторы: K15, Модераторы, Младшие модераторы

Станция «Сеул» / Seoul Station / Seoulyeok [Movie] [Без хардсаба] [RUS(int), KOR] [2016, ужасы, триллер, BDRip] [1080p]

Сообщение Крутой перец » 25 сен 2020, 16:39

Станция «Сеул» / Seoul Station / Seoulyeok

#777

Страна: Корея
Год выпуска: 2016
Жанр: ужасы, триллер
Тип: Movie
Продолжительность: 01:32:10

Режиссер: Ён Сан-хо

Студия: Studio Dadashow

Описание:
Хе Сон ссорится со своим парнем Ки Уном, который просит девушку зарабатывать своим телом через интернет, так как им нечем платить за квартиру. Возмущённая аморальным предложением своего ухажёра, Хе Сон убегает и оказывается рядом со станцией «Сеул» как раз в тот момент, когда начинается эпидемия зомби. Ей удаётся бежать со станции вместе с местным бездомным. Тем временем Ки Ун встречается с клиентом, который утверждает, что является отцом Хе Сон, после чего они вместе отправляются на её поиски.

Доп. информация: Корейский анимационный фильм в жанре зомби-апокалипсиса, снятый Ён Сан Хо, вышедший на экраны 18 августа 2016 года. Роли главных героев озвучивали Рю Сын Рён (англ.)русск., Сим Ынгён и Ли Джун (солист корейской группы MBLAQ). Мультфильм является приквелом к фильму «Поезд в Пусан», снятому тем же режиссёром. Премьера состоялась в апреле 2016 года на Брюссельском международном фестивале фантастических фильмов. Мультфильм вошёл в программу показов Эдинбургского кинофестиваля 2016 года, международного анимационного кинофестиваля в Анси, международного кинофестиваля «Fantasia» в Монреале, международного кинофестиваля в Сиджесе.


Качество: BDRip (1080p)
Тип релиза: Без хардсаба
Формат видео: MKV
Наличие линковки: Нет

Рип видео: p33Rn3t (rarbg)
Рип с канала 2х2 и сведение: [i]WORTEXSON[/i
Видео: AVC, 1920x1040, 6021 Кбит/с, 24 fps 8bit
Аудио 1: AC3, 192 Кбит/с, 48 kHz, 2 ch | в составе контейнера | Озвучка: многоголосая, 2x2
Аудио 2: DTS, 768 Кбит/с, 48 kHz, 6 ch | в составе контейнера | Original
Субтитры: Английские (в составе контейнера)
Код: Выделить всё
General
Unique ID                      : 263921283090965441111547341077940377832 (0xC68D63E49465D19BFBDFA119C49998E8)
Complete name                  : F:\A_BACKUP\Seoul.Station.2016.1080p.BluRay.x264-USURY[rarbg]\Seoul.Station.2016.1080p.BDRip.x264.mkv
Format                         : Matroska
Format version                 : Version 4
File size                      : 4.50 GiB
Duration                       : 1 h 32 min
Overall bit rate               : 6 983 kb/s
Encoded date                   : UTC 2019-11-10 00:33:12
Writing application            : mkvmerge v37.0.0 ('Leave It') 64-bit
Writing library                : libebml v1.3.9 + libmatroska v1.5.2
Video
ID                             : 1
Format                         : AVC
Format/Info                    : Advanced Video Codec
Format profile                 : High@L4.1
Format settings                : CABAC / 4 Ref Frames
Format settings, CABAC         : Yes
Format settings, Reference fra : 4 frames
Codec ID                       : V_MPEG4/ISO/AVC
Duration                       : 1 h 32 min
Bit rate                       : 6 021 kb/s
Width                          : 1 920 pixels
Height                         : 1 040 pixels
Display aspect ratio           : 1.85:1
Frame rate mode                : Constant
Frame rate                     : 24.000 FPS
Color space                    : YUV
Chroma subsampling             : 4:2:0
Bit depth                      : 8 bits
Scan type                      : Progressive
Bits/(Pixel*Frame)             : 0.126
Stream size                    : 3.88 GiB (86%)
Writing library                : x264 core 148 r2744 b97ae06
Encoding settings              : cabac=1 / ref=4 / deblock=1:-3:-3 / analyse=0x3:0x133 / me=umh / subme=9 / psy=1 / psy_rd=1.00:0.00 / mixed_ref=1 / me_range=16 / chroma_me=1 / trellis=2 / 8x8dct=1 / cqm=0 / deadzone=21,11 / fast_pskip=0 / chroma_qp_offset=-2 / threads=18 / lookahead_threads=1 / sliced_threads=0 / nr=0 / decimate=1 / interlaced=0 / bluray_compat=0 / constrained_intra=0 / bframes=3 / b_pyramid=2 / b_adapt=1 / b_bias=0 / direct=3 / weightb=1 / open_gop=0 / weightp=2 / keyint=250 / keyint_min=24 / scenecut=40 / intra_refresh=0 / rc_lookahead=50 / rc=2pass / mbtree=1 / bitrate=6021 / ratetol=1.0 / qcomp=0.60 / qpmin=0 / qpmax=69 / qpstep=4 / cplxblur=20.0 / qblur=0.5 / ip_ratio=1.40 / aq=1:1.00
Language                       : English
Default                        : Yes
Forced                         : No
Audio #1
ID                             : 2
Format                         : AC-3
Format/Info                    : Audio Coding 3
Commercial name                : Dolby Digital
Codec ID                       : A_AC3
Duration                       : 1 h 32 min
Bit rate mode                  : Constant
Bit rate                       : 192 kb/s
Channel(s)                     : 2 channels
Channel layout                 : L R
Sampling rate                  : 48.0 kHz
Frame rate                     : 31.250 FPS (1536 SPF)
Compression mode               : Lossy
Stream size                    : 127 MiB (3%)
Title                          : for 2x2
Language                       : Russian
Service kind                   : Complete Main
Default                        : Yes
Forced                         : Yes
Audio #2
ID                             : 3
Format                         : DTS
Format/Info                    : Digital Theater Systems
Codec ID                       : A_DTS
Duration                       : 1 h 32 min
Bit rate mode                  : Constant
Bit rate                       : 768 kb/s
Channel(s)                     : 6 channels
Channel layout                 : C L R Ls Rs LFE
Sampling rate                  : 48.0 kHz
Frame rate                     : 93.750 FPS (512 SPF)
Bit depth                      : 24 bits
Compression mode               : Lossy
Stream size                    : 506 MiB (11%)
Title                          : original
Language                       : Korean
Default                        : No
Forced                         : No
Text
ID                             : 4
Format                         : UTF-8
Codec ID                       : S_TEXT/UTF8
Codec ID/Info                  : UTF-8 Plain Text
Duration                       : 1 h 29 min
Bit rate                       : 30 b/s
Count of elements              : 851
Stream size                    : 19.9 KiB (0%)
Language                       : English
Default                        : No
Forced                         : No
Menu
00:00:00.000                   : en:00:00:00.000
00:07:57.292                   : en:00:07:57.292
00:15:03.333                   : en:00:15:03.333
00:24:05.417                   : en:00:24:05.417
00:31:32.833                   : en:00:31:32.833
00:39:26.833                   : en:00:39:26.833
00:45:43.958                   : en:00:45:43.958
00:53:44.042                   : en:00:53:44.042
01:01:18.792                   : en:01:01:18.792
01:07:47.958                   : en:01:07:47.958
01:16:14.542                   : en:01:16:14.542
01:24:05.667                   : en:01:24:05.667
Крутой перец
Аватара пользователя
 
Раздал: 265.74 ГБ
Скачал: 1.45 ГБ
Ратио: 183.536
Сообщения: 211
Зарегистрирован: 10 июл 2014, 11:59
  • Торрент
Автор: Крутой перец Хэш: ---
Добавлен: 25 сен 2020, 16:39 Приватный: Нет (DHT включён)
Статус: Проверен
Размер: 4.5 ГБ (4 827 077 855 байт)
Изменил:
---
Скачали: 24 (Раздающих: 0%)
Причина:
---
Здоровье: 100%
Сидеров: 8 Личеров: 4
Скорость раздачи: 0 байт/сек Скорость скачивания: 0 байт/сек
Последний сидер: 9 дней 19 часов 41 минуту 5 секунд назад Последний личер: 9 дней 19 часов 41 минуту 5 секунд назад
Для скачивания торрента необходимо зарегистрироваться или войти на трекер.

Форум Статистика

Сейчас этот форум просматривают: нет зарегистрированных пользователей и гости: 1

Настройки

Вернуться в Аниме

cron
Ресурс не предоставляет электронные версии произведений, а занимается лишь коллекционированием и каталогизацией ссылок, присылаемых и публикуемых на форуме нашими читателями. Если вы являетесь правообладателем какого-либо представленного материала и не желаете чтобы ссылка на него находилась в нашем каталоге, свяжитесь с нами и мы незамедлительно удалим её. Файлы для обмена на трекере предоставлены пользователями сайта, и администрация не несёт ответственности за их содержание. Просьба не заливать файлы, защищенные авторскими правами, а также файлы нелегального содержания!