Модераторы: K15, Модераторы, Младшие модераторы

Дитя погоды / Tenki no ko / Weathering With You (Макото Синкай) [2019, Аниме, мультфильм, мелодрама, фэнтези, BDRip 1080p / D, P / iTunes]

Сообщение 7Max7 » 01 июн 2020, 20:23

Дитя погоды / Tenki no ko / Weathering With You


#777

Информация о фильме
Название: Дитя погоды
Оригинальное название: Tenki no ko / Weathering With You
Год выхода: 2019
Страна: Япония
Переводы:
#1 Дублированный | iTunes
#2 Профессиональный (многоголосый закадровый) | NewComers
Продолжительность: 01:52:13
Жанр: Аниме, мультфильм, мелодрама, фэнтези

Режиссер: Макото Синкай

В ролях:
Котаро Дайго, Нана Мори, Сюн Огури, Цубаса Хонда, Тиэко Байсё, Кана Ханадзава, Сэи Хираидзуми, Кана Итиносэ, Юки Кадзи, Рюносукэ Камики и др.

Роли дублировали:
Егор Козаченко, Екатерина Астрединова, Александр Фильченко, Анастасия Климушкина, Татьяна Чернявская.

О фильме:
Они встретились посреди Токио под нескончаемым дождём. Он мечтает начать новую жизнь в большом городе. А она никогда не унывает и обладает удивительным даром менять погоду силой мысли. Там, где она — всегда солнце. Вместе они изменят этот мир навсегда.



Файл
Качество: BDRip 1080p | Weathering.with.You.2019.JAPANESE.1080p.BluRay.REMUX.AVC.DTS-HD.MA.5.1-FGT
Видео: MPEG-4 AVC, 1920x1080, 11024 kbps, 23,976 fps
Звук#1: русский, AC3, 5.1 ch, 48 kHz, 384 kbps | iTunes
Звук#2: русский, AC3, 5.1 ch, 48 kHz, 448 kbps | NewComers
Звук#3: украинский, AC3, 5.1 ch, 48 kHz, 384 kbps | дубляж iTunes
Звук#4: японский, AC3, 5.1 ch, 48 kHz, 448 kbps | оригинал
Субтитры: русские (форс., полные)

Общее
Уникальный идентификатор : 205791897661861029028116723174214006761 (0x9AD213EAD3B430919AA200261424F7E9)
Полное имя : G:Torrent2DityaPogodyBDRip1080p.mkv
Формат : Matroska
Версия формата : Version 4 / Version 2
Размер файла : 9,95 Гбайт
Продолжительность : 1 ч. 52 м.
Общий поток : 12,7 Мбит/сек
Дата кодирования : UTC 2020-05-31 19:29:45
Программа кодирования : mkvmerge v9.5.0 ('Quiet Fire') 64bit
Библиотека кодирования : libebml v1.3.4 + libmatroska v1.4.5

Видео
Идентификатор : 1
Формат : AVC
Формат/Информация : Advanced Video Codec
Профиль формата : High@L4.1
Настройки формата : CABAC / 4 Ref Frames
Параметр CABAC формата : Да
Параметр RefFrames формата : 4 кадра
Идентификатор кодека : V_MPEG4/ISO/AVC
Продолжительность : 1 ч. 52 м.
Битрейт : 11,0 Мбит/сек
Ширина : 1920 пикселей
Высота : 1080 пикселей
Соотношение сторон : 16:9
Режим частоты кадров : Постоянный
Частота кадров : 23,976 (23976/1000) кадра/сек
Цветовое пространство : YUV
Субдискретизация насыщенности : 4:2:0
Битовая глубина : 8 бит
Тип развёртки : Прогрессивная
Бит/(Пиксели*Кадры) : 0.222
Размер потока : 8,64 Гбайт (87%)
Заголовок : Sisendrovich(R)
Библиотека кодирования : x264 core 159 r2991 1771b55
Настройки программы : cabac=1 / ref=4 / deblock=1:-1:-1 / analyse=0x3:0x133 / me=tesa / subme=11 / psy=1 / psy_rd=1.00:0.00 / mixed_ref=1 / me_range=32 / chroma_me=1 / trellis=2 / 8x8dct=1 / cqm=0 / deadzone=21,11 / fast_pskip=0 / chroma_qp_offset=-2 / threads=24 / lookahead_threads=6 / sliced_threads=0 / nr=0 / decimate=0 / interlaced=0 / bluray_compat=0 / constrained_intra=0 / bframes=12 / b_pyramid=2 / b_adapt=2 / b_bias=0 / direct=3 / weightb=1 / open_gop=0 / weightp=2 / keyint=240 / keyint_min=23 / scenecut=40 / intra_refresh=0 / rc_lookahead=60 / rc=2pass / mbtree=0 / bitrate=11024 / ratetol=1.0 / qcomp=0.70 / qpmin=0 / qpmax=69 / qpstep=4 / cplxblur=20.0 / qblur=0.5 / vbv_maxrate=50000 / vbv_bufsize=62500 / nal_hrd=none / filler=0 / ip_ratio=1.40 / pb_ratio=1.30 / aq=1:1.00
Язык : Japanese
Default : Да
Forced : Нет

Аудио #1
Идентификатор : 2
Формат : AC-3
Формат/Информация : Audio Coding 3
Параметр Endianness формата : Big
Идентификатор кодека : A_AC3
Продолжительность : 1 ч. 52 м.
Вид битрейта : Постоянный
Битрейт : 384 Кбит/сек
Каналы : 6 каналов
Расположение каналов : Front: L C R, Side: L R, LFE
Частота : 48,0 КГц
Частота кадров : 31,250 кадров/сек (1536 SPF)
Битовая глубина : 16 бит
Метод сжатия : С потерями
Размер потока : 308 Мбайт (3%)
Заголовок : rus DUB
Язык : Russian
Default : Да
Forced : Нет

Аудио #2
Идентификатор : 3
Формат : AC-3
Формат/Информация : Audio Coding 3
Параметр Endianness формата : Big
Идентификатор кодека : A_AC3
Продолжительность : 1 ч. 52 м.
Вид битрейта : Постоянный
Битрейт : 448 Кбит/сек
Каналы : 6 каналов
Расположение каналов : Front: L C R, Side: L R, LFE
Частота : 48,0 КГц
Частота кадров : 31,250 кадров/сек (1536 SPF)
Битовая глубина : 16 бит
Метод сжатия : С потерями
Размер потока : 360 Мбайт (4%)
Заголовок : rus NewComers
Язык : Russian
Default : Нет
Forced : Нет

Аудио #3
Идентификатор : 4
Формат : AC-3
Формат/Информация : Audio Coding 3
Параметр Endianness формата : Big
Идентификатор кодека : A_AC3
Продолжительность : 1 ч. 52 м.
Вид битрейта : Постоянный
Битрейт : 384 Кбит/сек
Каналы : 6 каналов
Расположение каналов : Front: L C R, Side: L R, LFE
Частота : 48,0 КГц
Частота кадров : 31,250 кадров/сек (1536 SPF)
Битовая глубина : 16 бит
Метод сжатия : С потерями
Размер потока : 308 Мбайт (3%)
Заголовок : ukr
Язык : Ukrainian
Default : Нет
Forced : Нет

Аудио #4
Идентификатор : 5
Формат : AC-3
Формат/Информация : Audio Coding 3
Параметр Endianness формата : Big
Идентификатор кодека : A_AC3
Продолжительность : 1 ч. 52 м.
Вид битрейта : Постоянный
Битрейт : 448 Кбит/сек
Каналы : 6 каналов
Расположение каналов : Front: L C R, Side: L R, LFE
Частота : 48,0 КГц
Частота кадров : 31,250 кадров/сек (1536 SPF)
Битовая глубина : 16 бит
Метод сжатия : С потерями
Размер потока : 360 Мбайт (4%)
Заголовок : Jap
Язык : Japanese
Default : Нет
Forced : Нет

Текст #1
Идентификатор : 6
Формат : UTF-8
Идентификатор кодека : S_TEXT/UTF8
Идентификатор кодека/Информация : UTF-8 Plain Text
Продолжительность : 1 ч. 44 м.
Битрейт : 5 бит/сек
ElementCount : 100
Размер потока : 4,33 Кбайт (0%)
Заголовок : rusForced
Язык : Russian
Default : Да
Forced : Нет

Текст #2
Идентификатор : 7
Формат : UTF-8
Идентификатор кодека : S_TEXT/UTF8
Идентификатор кодека/Информация : UTF-8 Plain Text
Продолжительность : 1 ч. 46 м.
Битрейт : 88 бит/сек
ElementCount : 1335
Размер потока : 68,9 Кбайт (0%)
Заголовок : rusFull
Язык : Russian
Default : Нет
Forced : Нет

Меню
00:00:00.000 : ja:Chapter 01
00:03:52.315 : ja:Chapter 02
00:07:13.433 : ja:Chapter 03
00:11:51.210 : ja:Chapter 04
00:17:27.046 : ja:Chapter 05
00:19:46.351 : ja:Chapter 06
00:22:25.260 : ja:Chapter 07
00:26:08.066 : ja:Chapter 08
00:30:07.972 : ja:Chapter 09
00:34:27.982 : ja:Chapter 10
00:38:29.807 : ja:Chapter 11
00:41:36.243 : ja:Chapter 12
00:44:05.893 : ja:Chapter 13
00:47:58.876 : ja:Chapter 14
00:52:11.461 : ja:Chapter 15
00:55:55.852 : ja:Chapter 16
00:58:46.773 : ja:Chapter 17
01:01:42.532 : ja:Chapter 18
01:05:18.247 : ja:Chapter 19
01:08:55.923 : ja:Chapter 20
01:13:52.928 : ja:Chapter 21
01:16:58.697 : ja:Chapter 22
01:19:57.709 : ja:Chapter 23
01:23:15.949 : ja:Chapter 24
01:25:48.226 : ja:Chapter 25
01:28:51.117 : ja:Chapter 26
01:33:02.868 : ja:Chapter 27
01:38:33.115 : ja:Chapter 28
01:43:29.328 : ja:Chapter 29
01:47:40.829 : ja:Chapter 30
01:52:12.726 : ja:Chapter 31



Рип и релиз от:
7Max7
Аватара пользователя
 
Раздал: 491.08 ГБ
Скачал: 4.25 ГБ
Ратио: 115.495
Сообщения: 481
Зарегистрирован: 14 фев 2014, 18:28
  • Торрент
Автор: 7Max7 Хэш: ---
Добавлен: 01 июн 2020, 20:23 Приватный: Нет (DHT включён)
Статус: Проверен
Размер: 9.95 ГБ (10 681 412 442 байт)
Изменил:
---
Скачали: 0 (Раздающих: 0%)
Причина:
---
Здоровье: 0%
Сидеров: 0 Личеров: 0
Скорость раздачи: 0 байт/сек Скорость скачивания: 0 байт/сек
Последний сидер: Нет Последний личер: Нет
Для скачивания торрента необходимо зарегистрироваться или войти на трекер.

Форум Статистика

Сейчас этот форум просматривают: нет зарегистрированных пользователей и гости: 4

Настройки

Вернуться в Аниме

cron
Ресурс не предоставляет электронные версии произведений, а занимается лишь коллекционированием и каталогизацией ссылок, присылаемых и публикуемых на форуме нашими читателями. Если вы являетесь правообладателем какого-либо представленного материала и не желаете чтобы ссылка на него находилась в нашем каталоге, свяжитесь с нами и мы незамедлительно удалим её. Файлы для обмена на трекере предоставлены пользователями сайта, и администрация не несёт ответственности за их содержание. Просьба не заливать файлы, защищенные авторскими правами, а также файлы нелегального содержания!