Модераторы: K15, Модераторы, Младшие модераторы

Синий Экзорцист / Gekijouban Ao no Exorcist (2012) BDRip-AVC | L2

Сообщение ViKa » 16 сен 2015, 20:30

  • Постеры
Синий Экзорцист / Gekijouban Ao no Exorcist (2012) BDRip-AVC | iPad | L2


Название: Синий Экзорцист
Оригинальное название: Gekijouban Ao no Exorcist /
Год выхода: 2012
Жанр: аниме, мультфильм, приключения, боевик

Режиссер: Ацуши Такахаси
В ролях: Нобухико Окамото, Дзюн Фукуяма, Кана Ханадзава, Кадзуя Накаи, Кодзи Юса, Юки Кадзи, Китамура Эри, Ayahi Takagak, Рина Сато, Дайсукэ Оно

О фильме:
Сюжет фильма делится на две части: в первой из них Юкио, Рин и Шиеми отправляются на задание по уничтожению поезда-призрака, который терроризирует окрестности Тру Крос Тауна, похищая души людей, по ошибке севших в него. Вторая, параллельно развивающаяся сюжетная линия: проходящий в это время фестиваль «11-ти лет». Сюра и Ченг прибывают на место для контроля проходящего праздника и усиления печати экзорцистов…





Страна: Япония
Студия: Aniplex, A-1 Pictures

Продолжительность: 01:08:00
Перевод: Русский любительский двухголосый закадровый

Файл
Кодек: H.264
Качество: BDRip [576p]
Видео: 1024x576 (16:9) at 23.976 fps, AVC at 2900 kbps
Звук:
1: АAС 2.0 136 kbps - Русский любительский двухголосый закадровый («AniDUB»)
2: АAС 2.0 136 kbps - Японский
Субтитры: Отсутствует


General
Complete name : C:DOWNLOADBlue.Exorcist.2012.576p.L2.m4v
Format : MPEG-4
Codec ID : M4V
File size : 2.00 GiB
Duration : 1h 28mn
Overall bit rate mode : Variable
Overall bit rate : 3 217 Kbps
Movie name : Синий экзорцист
Performer : Atsushi Takahashi
Genre : Animation Fantasy
ContentType : Short Film
Deion : Сюжет фильма делится на две части: в первой из них Юкио, Рин и Шиеми отправляются на задание по уничтожению поезда-призрака, который терроризирует окрестности Тру Крос Тауна, похищая души людей, по ошибке севших в него.
Recorded date : UTC 2012-12-28 08:00:00
Encoded date : UTC 2014-07-23 07:23:55
Tagged date : UTC 2014-07-23 07:32:18
Copyright : Aniplex, A-1 Pictures
Cover : Yes

Title/Sort : Ao no Ekusoshisuto: Gekij-ban
LongDeion : Сюжет фильма делится на две части: в первой из них Юкио, Рин и Шиеми отправляются на задание по уничтожению поезда-призрака, который терроризирует окрестности Тру Крос Тауна, похищая души людей, по ошибке севших в него. Вторая, параллельно развивающаяся сюжетная линия: проходящий в это время фестиваль «11-ти лет». Сюра и Ченг прибывают на место для контроля проходящего праздника и усиления печати экзорцистов…
AppleStoreCatalogID : 723377
Vendor : Apple:vendor_id:2012-723377

Video
ID : 1
Format : AVC
Format/Info : Advanced Video Codec
Format profile : High@L4.1
Format settings, CABAC : Yes
Format settings, ReFrames : 10 frames
Codec ID : avc1
Codec ID/Info : Advanced Video Coding
Duration : 1h 28mn
Bit rate : 2 931 Kbps
Maximum bit rate : 23.6 Mbps
Width : 1 024 pixels
Height : 576 pixels
Display aspect ratio : 16:9
Frame rate mode : Constant
Frame rate : 23.976 fps
Color space : YUV
Chroma subsampling : 4:2:0
Bit depth : 8 bits
Scan type : Progressive
Bits/(Pixel*Frame) : 0.207
Stream size : 1.82 GiB (91%)
Title : Blue.Exorcist.2012
Language : Japanese
Encoded date : UTC 2014-07-23 07:23:55
Tagged date : UTC 2014-07-23 07:24:05
Matrix coefficients : BT.709

Audio #1
ID : 2
Format : AAC
Format/Info : Advanced Audio Codec
Format profile : LC
Codec ID : 40
Duration : 1h 28mn
Bit rate mode : Variable
Bit rate : 136 Kbps
Maximum bit rate : 193 Kbps
Channel(s) : 2 channels
Channel positions : Front: L R
Sampling rate : 48.0 KHz
Compression mode : Lossy
Stream size : 86.3 MiB (4%)
Title : DVO AnyDUB
Language : Russian
Encoded date : UTC 2014-07-23 07:19:51
Tagged date : UTC 2014-07-23 07:24:05

Audio #2
ID : 3
Format : AAC
Format/Info : Advanced Audio Codec
Format profile : LC
Codec ID : 40
Duration : 1h 28mn
Bit rate mode : Variable
Bit rate : 138 Kbps
Maximum bit rate : 204 Kbps
Channel(s) : 2 channels
Channel positions : Front: L R
Sampling rate : 48.0 KHz
Compression mode : Lossy
Stream size : 87.7 MiB (4%)
Language : Japanese
Encoded date : UTC 2014-07-23 07:22:16
Tagged date : UTC 2014-07-23 07:24:05

Menu
ID : 4
Codec ID : text
Duration : 1h 28mn
Encoded date : UTC 2014-07-23 07:24:24
Tagged date : UTC 2014-07-23 07:24:24
Bit rate mode : CBR



x264 [info]: frame I:994 Avg QP:14.58 size:130574
x264 [info]: frame P:27986 Avg QP:18.99 size: 34498
x264 [info]: frame B:98748 Avg QP:22.94 size: 8675
x264 [info]: consecutive B-frames: 3.4% 3.2% 8.5% 17.0% 15.0% 26.7% 9.5% 5.6% 5.8% 2.5% 0.8% 1.1% 0.8%
x264 [info]: mb I I16..4: 11.3% 32.3% 56.3%
x264 [info]: mb P I16..4: 2.1% 5.1% 3.6% P16..4: 31.1% 24.6% 15.9% 5.6% 1.8% skip:10.2%
x264 [info]: mb B I16..4: 0.3% 1.2% 0.6% B16..8: 25.3% 10.9% 3.0% direct: 4.2% skip:54.6% L0:48.1% L1:39.7% BI:12.2%
x264 [info]: 8x8 transform intra:48.2% inter:24.4%
x264 [info]: coded y,uvDC,uvAC intra: 70.7% 66.2% 47.7% inter: 14.9% 10.8% 7.1%
x264 [info]: i16 v,h,dc,p: 11% 14% 12% 63%
x264 [info]: i8 v,h,dc,ddl,ddr,vr,hd,vl,hu: 11% 11% 13% 8% 11% 9% 11% 10% 14%
x264 [info]: i4 v,h,dc,ddl,ddr,vr,hd,vl,hu: 16% 12% 15% 8% 11% 9% 10% 8% 12%
x264 [info]: i8c dc,h,v,p: 33% 32% 18% 17%
x264 [info]: Weighted P-Frames: Y:3.4% UV:2.5%
x264 [info]: ref P L0: 44.2% 5.3% 16.6% 8.7% 6.7% 5.4% 4.7% 3.0% 2.7% 2.5% 0.3% 0.0%
x264 [info]: ref B L0: 66.2% 11.5% 7.2% 4.1% 3.3% 2.8% 2.3% 1.7% 1.0%
x264 [info]: ref B L1: 91.5% 8.5%
x264 [info]: kb/s:2931.05



Sort Name: Ao no Ekusoshisuto: Gekij-ban
XID: Apple:vendor_id:2012-723377
Content ID: 723377
Copyright: Aniplex, A-1 Pictures
ScreenWriters: Reiko Yoshida, Kazuki Katou, Ryota Yamaguchi, Keigo Sasaki
Producers: Manabu Endou, Makoto Furukawa, Takamitsu Inoue, Kozue Kaneniwa, Hiroo Maruyama, Tetsuhito Motoyasu, Arimasa Okada, Miho Ueda
Director: Ацуси Такахаси
Cast: Нобухико Окамото, Дзюн Фукуяма, Кана Ханадзава, Кадзуя Накаи, Кодзи Юса, Юки Кадзи, Китамура Эри, Ayahi Takagak, Рина Сато, Дайсукэ Оно // Nobuhiko Okamoto (Rin Okumura), Jun Fukuyama (Yukio Okumura), Kana Hanazawa (Shiemi Moriyama), Kazuya Nakai (Ryuji Suguro), Koji Yusa (Renzo Shima), Yki Kaji (Konekomaru Miwa), Eri Kitamura (Izumo Kamiki), Ayahi Takagaki (Kuro), Daisuke Ono (Arthur Auguste Angel), Keiji Fujiwara (Shirou Fujimoto), Touyama Nao (Nii-chan)
Long Deion: Сюжет фильма делится на две части: в первой из них Юкио, Рин и Шиеми отправляются на задание по уничтожению поезда-призрака, который терроризирует окрестности Тру Крос Тауна, похищая души людей, по ошибке севших в него. Вторая, параллельно развивающаяся сюжетная линия: проходящий в это время фестиваль «11-ти лет». Сюра и Ченг прибывают на место для контроля проходящего праздника и усиления печати экзорцистов…
Deion: Сюжет фильма делится на две части: в первой из них Юкио, Рин и Шиеми отправляются на задание по уничтожению поезда-призрака, который терроризирует окрестности Тру Крос Тауна, похищая души людей, по ошибке севших в него.
Release Date: 2012-12-28T08:00:00Z
Genre: Animation Fantasy
Artist: Atsushi Takahashi
Name: Синий экзорцист







ViKa
 
Раздал: 4.71 ТБ
Скачал: 139.97 ГБ
Ратио: 34.434
Сообщения: 25821
Зарегистрирован: 14 мар 2009, 20:33
  • Торрент
Автор: ViKa Хэш: ---
Добавлен: 16 сен 2015, 20:30 Приватный: Нет (DHT включён)
Статус: Проверен
Размер: 2 ГБ (2 142 518 975 байт)
Изменил:
---
Скачали: 0 (Раздающих: 0%)
Причина:
---
Здоровье: 0%
Сидеров: 0 Личеров: 0
Скорость раздачи: 0 байт/сек Скорость скачивания: 0 байт/сек
Последний сидер: Нет Последний личер: Нет
Для скачивания торрента необходимо зарегистрироваться или войти на трекер.

Форум Статистика

Сейчас этот форум просматривают: нет зарегистрированных пользователей и гости: 4

Настройки

Вернуться в Аниме

cron
Ресурс не предоставляет электронные версии произведений, а занимается лишь коллекционированием и каталогизацией ссылок, присылаемых и публикуемых на форуме нашими читателями. Если вы являетесь правообладателем какого-либо представленного материала и не желаете чтобы ссылка на него находилась в нашем каталоге, свяжитесь с нами и мы незамедлительно удалим её. Файлы для обмена на трекере предоставлены пользователями сайта, и администрация не несёт ответственности за их содержание. Просьба не заливать файлы, защищенные авторскими правами, а также файлы нелегального содержания!
tracker_cron