Модераторы: K15, Младшие модераторы, Модераторы

Жена путешественника во времени / The Time Traveler's Wife [S01] (Дэвид Наттер) [2022, фантастика, фэнтези, драма, мелодрама, WEB-DL 1080p / Amedia]

Сообщение Sovetnik » 31 июл 2022, 13:20

#777

Жена путешественника во времени / The Time Traveler's Wife
[S01]


Информация о фильме
Название: Жена путешественника во времени
Оригинальное название: The Time Traveler's Wife
Год выхода: 2022
Страна: США
Студия: Annapurna Television, HBO Max
Продолжительность: ~00:50:00 серия
Перевод: Профессиональный (многоголосый, закадровый) Novamedia по заказу Amedia
Жанр: фантастика, фэнтези, драма, мелодрама

Режиссер: Дэвид Наттер

В ролях: Роуз Лесли, Тео Джеймс, Десмин Борхес, Наташа Лопес, Майкл Парк, Джейми Рэй Ньюман, Тейлор Ричардсон, Кэйт Сигел, Джош Стэмберг, Марсия ДеБонис, Питер Грэм, Уилл Брилл, Челси Фрей, Спенсер Хаус, Джейсон Дэвид, Брайан Алтемус, Эверли МакДонелл...

О фильме:
Клэр (Роуз Лесли) делает скульптуры из бумаги. Генри (Тео Джеймс) — библиотекарь в Чикаго. Они молоды и влюблены, однако есть маленькая проблема: из-за генетической особенности Генри путешествует во времени. Бестселлер Одри Ниффенеггер, поженивший мелодраму и научную фантастику, уже экранизировали в 2008 году с Эриком Баной и Рэйчел МакАдамс. Теперь за дело взялся Стивен Моффат («Доктор Кто», «Шерлок»), большой специалист по путешествиям во времени...




Файл
Качество: WEB-DL 1080p
Формат: Matroska
Видео: 1920x1080 at 23.976 fps, MPEG-4 AVC, ~8250 kbps avg
Аудио#1: Russian: 48 kHz, AC3, 3/2 (L,C,R,l,r) + LFE ch, ~384 kbps avg |Novamedia по заказу Amedia|
Аудио#2: English: 48 kHz, AC3, 3/2 (L,C,R,l,r) + LFE ch, ~384 kbps avg
Субтитры: Russian (Forced, Full), English (Full, SDH), Spanish (Full, SDH)
***Примечание: Без рекламы

General
Complete name : The.Time.Travelers.Wife.S01E01.1080p.HMAX.WEB-DL.DD5.1.x264-NTb_EniaHD.mkv
Format : Matroska
Format version : Version 4
File size : 3.17 GiB
Duration : 50 min 32 s
Overall bit rate mode : Variable
Overall bit rate : 8 975 kb/s
Movie name : The Time Traveler's Wife S01E01 - EniaHD
Writing application : mkvmerge v57.0.0 ('Till The End') 64-bit
Writing library : libebml v1.4.2 + libmatroska v1.6.4

Video
ID : 1
Format : AVC
Format/Info : Advanced Video Codec
Format profile : High@L4
Format settings : CABAC / 4 Ref Frames
Format settings, CABAC : Yes
Format settings, Reference fra : 4 frames
Codec ID : V_MPEG4/ISO/AVC
Duration : 50 min 30 s
Bit rate mode : Variable
Bit rate : 8 250 kb/s
Maximum bit rate : 12.4 Mb/s
Width : 1 920 pixels
Height : 1 080 pixels
Display aspect ratio : 16:9
Frame rate mode : Constant
Frame rate : 23.976 (24000/1001) FPS
Color space : YUV
Chroma subsampling : 4:2:0
Bit depth : 8 bits
Scan type : Progressive
Bits/(Pixel*Frame) : 0.166
Stream size : 2.90 GiB (91%)
Writing library : x264 core 157 r2965 861cec4
Encoding settings : cabac=1 / ref=4 / deblock=1:0:0 / analyse=0x3:0x113 / me=hex / subme=7 / psy=1 / psy_rd=1.00:0.00 / mixed_ref=1 / me_range=16 / chroma_me=1 / trellis=1 / 8x8dct=1 / cqm=0 / deadzone=21,11 / fast_pskip=1 / chroma_qp_offset=-2 / threads=34 / lookahead_threads=5 / sliced_threads=0 / nr=0 / decimate=1 / interlaced=0 / bluray_compat=0 / constrained_intra=0 / bframes=3 / b_pyramid=2 / b_adapt=1 / b_bias=0 / direct=1 / weightb=1 / open_gop=0 / weightp=2 / keyint=96 / keyint_min=96 / scenecut=40 / intra_refresh=0 / rc_lookahead=40 / rc=2pass / mbtree=1 / bitrate=8250 / ratetol=1.0 / qcomp=0.60 / qpmin=0 / qpmax=69 / qpstep=4 / cplxblur=20.0 / qblur=0.5 / vbv_maxrate=12375 / vbv_bufsize=6187 / nal_hrd=vbr / filler=0 / ip_ratio=1.40 / aq=1:1.00
Default : Yes
Forced : No
Color range : Limited
Color primaries : BT.709
Transfer characteristics : BT.709
Matrix coefficients : BT.709

Audio #1
ID : 2
Format : AC-3
Format/Info : Audio Coding 3
Commercial name : Dolby Digital
Codec ID : A_AC3
Duration : 50 min 32 s
Bit rate mode : Constant
Bit rate : 384 kb/s
Channel(s) : 6 channels
Channel layout : L R C LFE Ls Rs
Sampling rate : 48.0 kHz
Frame rate : 31.250 FPS (1536 SPF)
Compression mode : Lossy
Stream size : 139 MiB (4%)
Language : Russian
Service kind : Complete Main
Default : Yes
Forced : No

Audio #2
ID : 3
Format : AC-3
Format/Info : Audio Coding 3
Commercial name : Dolby Digital
Codec ID : A_AC3
Duration : 50 min 30 s
Bit rate mode : Constant
Bit rate : 384 kb/s
Channel(s) : 6 channels
Channel layout : L R C LFE Ls Rs
Sampling rate : 48.0 kHz
Frame rate : 31.250 FPS (1536 SPF)
Compression mode : Lossy
Stream size : 139 MiB (4%)
Language : English
Service kind : Complete Main
Default : No
Forced : No

Text #1
ID : 4
Format : UTF-8
Codec ID : S_TEXT/UTF8
Codec ID/Info : UTF-8 Plain Text
Duration : 45 min 49 s
Bit rate : 1 b/s
Count of elements : 13
Stream size : 522 Bytes (0%)
Title : Forced
Language : Russian
Default : Yes
Forced : No

Text #2
ID : 5
Format : UTF-8
Codec ID : S_TEXT/UTF8
Codec ID/Info : UTF-8 Plain Text
Duration : 48 min 29 s
Bit rate : 91 b/s
Count of elements : 730
Stream size : 32.6 KiB (0%)
Language : Russian
Default : No
Forced : No

Text #3
ID : 6
Format : UTF-8
Codec ID : S_TEXT/UTF8
Codec ID/Info : UTF-8 Plain Text
Duration : 48 min 39 s
Bit rate : 69 b/s
Count of elements : 770
Stream size : 24.8 KiB (0%)
Language : English
Default : No
Forced : No

Text #4
ID : 7
Format : UTF-8
Codec ID : S_TEXT/UTF8
Codec ID/Info : UTF-8 Plain Text
Duration : 50 min 10 s
Bit rate : 80 b/s
Count of elements : 887
Stream size : 29.4 KiB (0%)
Title : SDH
Language : English
Default : No
Forced : No

Text #5
ID : 8
Format : UTF-8
Codec ID : S_TEXT/UTF8
Codec ID/Info : UTF-8 Plain Text
Duration : 49 min 6 s
Bit rate : 69 b/s
Count of elements : 781
Stream size : 24.8 KiB (0%)
Language : Spanish
Default : No
Forced : No

Text #6
ID : 9
Format : UTF-8
Codec ID : S_TEXT/UTF8
Codec ID/Info : UTF-8 Plain Text
Duration : 49 min 6 s
Bit rate : 77 b/s
Count of elements : 866
Stream size : 27.8 KiB (0%)
Title : SDH
Language : Spanish
Default : No
Forced : No

Menu
00:00:00.000 : Chapter 1
00:49:23.000 : Credits

***Релиз: Wilmots@EniaHD
Sovetnik
Аватара пользователя
 
Раздал: 32.14 ТБ
Скачал: 13.23 ГБ
Ратио: 2488.285
Сообщения: 1918
Зарегистрирован: 13 фев 2014, 05:19
  • Торрент
Автор: Sovetnik Хэш: ---
Добавлен: 31 июл 2022, 13:20 Приватный: Нет (DHT включён)
Статус: Проверен
Размер: 18.29 ГБ (19 636 807 550 байт)
Изменил:
---
Скачали: 376 (Раздающих: 0%)
Причина:
---
Здоровье: 77%
Сидеров: 175 Личеров: 225
Скорость раздачи: 0 байт/сек Скорость скачивания: 0 байт/сек
Последний сидер: 3 месяца 29 дней 13 часов 26 минут 28 секунд назад Последний личер: 3 месяца 29 дней 13 часов 26 минут 28 секунд назад
Для скачивания торрента необходимо зарегистрироваться или войти на трекер.

Форум Статистика

Сейчас этот форум просматривают: нет зарегистрированных пользователей и гости: 1

Настройки

Вернуться в Сериалы

cron
Ресурс не предоставляет электронные версии произведений, а занимается лишь коллекционированием и каталогизацией ссылок, присылаемых и публикуемых на форуме нашими читателями. Если вы являетесь правообладателем какого-либо представленного материала и не желаете чтобы ссылка на него находилась в нашем каталоге, свяжитесь с нами и мы незамедлительно удалим её. Файлы для обмена на трекере предоставлены пользователями сайта, и администрация не несёт ответственности за их содержание. Просьба не заливать файлы, защищенные авторскими правами, а также файлы нелегального содержания!
tracker_cron