Модераторы: K15, Модераторы, Младшие модераторы

Дивный новый мир / Brave New World [S01] (Оуэн Харрис и др.) [2020, фантастика, драма, WEB-DL 1080p / Кубик в Кубе, HDRezka Studio, Newstudio, Lostfilm, Кравец-Рекордз]

Сообщение Zina » 21 авг 2020, 21:05

Дивный новый мир / Brave New World
[S01]


#777

Информация о фильме
Название: Дивный новый мир
Оригинальное название: Brave New World
Год выхода: 2020
Страна: США
Студия: Amblin Television, Universal Content Productions, Universal Content Productions (UCP)
Продолжительность: ~ 00:48:00
Перевод:
Профессиональный (двухголосый, закадровый) | Кубик в Кубе
Профессиональный (многоголосый, закадровый) | HDRezka Studio
Профессиональный (многоголосый, закадровый) | Newstudio
Профессиональный (многоголосый, закадровый) | Lostfilm
Профессиональный (многоголосый, закадровый) | Кравец-Рекордз
Жанр: фантастика, драма

Режиссер: Оуэн Харрис, Ифа Макардл, Андрий Парекх, Крейг Зиск, Эллен Кёрас

В ролях:

Олден Эренрайк (John the Savage), Джессика Браун-Финдли (Lenina Crowne), Гарри Ллойд (Bernard Marx), Нина Сосанья (Mustafa Mond), Джозеф Морган (CJack60), Кайли Банбери (Frannie), Сэн Мицудзи (Henry Foster), Ханна Джон-Кэймен (Wilhelmina «Helm» Watson), Софи Макинтош (Jane), Мэттью Обри (Gary), Эд Стоппард (The Director), Кейт Флитвуд (Sheila)

О фильме:
XXVI век, идеальный мир будущего. Здесь всё принадлежат всем, потребление возведено в культ, люди рождаются в инкубаторах и умирают без болезней и старости — а главное, каждый чувствует себя на вершине блаженства благодаря специальной таблетке. Синтетическую гармонию нарушает необычный человек извне, и перед жителями дивного нового мира встает опасный вопрос - верный ли путь к счастью они выбрали.



Реклама: Отсутствует

Файл
Кодек: AVC
Качество: WEB-DL 1080p
Видео: 1920x1080 (16:9), 23,976 fps, AVC, ~ 7460 kbps avg, 0,150 bit/pixel
Аудио #1: Русский, 48 kHz, AC3, 2 ch, 192 kbps avg | Профессиональный (двухголосый, закадровый) | Кубик в Кубе
Аудио #2: Русский, 48 kHz, AC3, 6 ch, 384 kbps avg | Профессиональный (многоголосый, закадровый) | HDRezka Studio
Аудио #3: Русский, 48 kHz, AC3, 6 ch, 384 kbps avg | Профессиональный (многоголосый, закадровый) | Newstudio
Аудио #4: Русский, 48 kHz, AC3, 6 ch, 384 kbps avg | Профессиональный (многоголосый, закадровый) | Lostfilm
Аудио #5: Русский, 48 kHz, AC3, 2 ch, 192 kbps avg | Профессиональный (многоголосый, закадровый) | Кравец-Рекордз
Аудио #6: Английский, 48 kHz, E-AC3, 6 ch, 192 kbps avg | Оригинал
Субтитры: русские, английские

Премьера (мир): 15 июля 2020 (США)
Премьера в РФ: 16 июля 2020

Эпизод 1. Пилот
Эпизод 2. Желания и последствия / Want & Consequence
Эпизод 3. Все теперь счастливы / Everybody Happy Now!
Эпизод 4. Прими таблетку / Swallow
Эпизод 5. Огнепад / Firefall
Эпизод 6. В грязи / In the Dirt
Эпизод 7. Единобрачие и бесплодие. Часть 1 / Monogamy and Futility, Part 1
Эпизод 8. Единобрачие и бесплодие. Часть 2 / Monogamy and Futility, Part 2
Эпизод 9. Красная сома / Soma Red
General
Unique ID : 2335677362405160495257937776168450588 (0x1C1D5C8EF408A6970F858D74608BA1C)
Complete name : Brave.New.World.S01.E01.1080p.WEB-DL.5xRus.Eng_Dreamcatcher.mkv
Format : Matroska
Format version : Version 4 / Version 2
File size : 3.11 GiB
Duration : 48 min
Overall bit rate : 9 192 kb/s
Movie name : Release by Dreamcatcher for EniaHD
Encoded date : UTC 2020-08-19 15:58:44
Writing application : mkvmerge v45.0.0 ('Heaven in Pennies') 64-bit
Writing library : libebml v1.3.10 + libmatroska v1.5.2

Video
ID : 1
Format : AVC
Format/Info : Advanced Video Codec
Format profile : High@L4
Format settings, CABAC : Yes
Format settings, ReFrames : 4 frames
Codec ID : V_MPEG4/ISO/AVC
Duration : 48 min
Bit rate : 7 461 kb/s
Width : 1 920 pixels
Height : 1 080 pixels
Display aspect ratio : 16:9
Frame rate mode : Constant
Frame rate : 23.976 (24000/1001) FPS
Color space : YUV
Chroma subsampling : 4:2:0
Bit depth : 8 bits
Scan type : Progressive
Bits/(Pixel*Frame) : 0.150
Stream size : 2.53 GiB (81%)
Language : English
Default : Yes
Forced : No

Audio #1
ID : 2
Format : AC-3
Format/Info : Audio Coding 3
Mode extension : CM (complete main)
Format settings, Endianness : Big
Codec ID : A_AC3
Duration : 48 min
Bit rate mode : Constant
Bit rate : 192 kb/s
Channel(s) : 2 channels
Channel positions : Front: L R
Sampling rate : 48.0 kHz
Frame rate : 31.250 FPS (1536 spf)
Compression mode : Lossy
Stream size : 66.5 MiB (2%)
Title : Кубик в Кубе
Language : Russian
Default : Yes
Forced : No

Audio #2
ID : 3
Format : AC-3
Format/Info : Audio Coding 3
Mode extension : CM (complete main)
Format settings, Endianness : Big
Codec ID : A_AC3
Duration : 48 min
Bit rate mode : Constant
Bit rate : 384 kb/s
Channel(s) : 6 channels
Channel positions : Front: L C R, Side: L R, LFE
Sampling rate : 48.0 kHz
Frame rate : 31.250 FPS (1536 spf)
Compression mode : Lossy
Stream size : 133 MiB (4%)
Title : HDRezka Studio
Language : Russian
Default : No
Forced : No

Audio #3
ID : 4
Format : AC-3
Format/Info : Audio Coding 3
Mode extension : CM (complete main)
Format settings, Endianness : Big
Codec ID : A_AC3
Duration : 48 min
Bit rate mode : Constant
Bit rate : 384 kb/s
Channel(s) : 6 channels
Channel positions : Front: L C R, Side: L R, LFE
Sampling rate : 48.0 kHz
Frame rate : 31.250 FPS (1536 spf)
Compression mode : Lossy
Stream size : 133 MiB (4%)
Title : Newstudio
Language : Russian
Default : No
Forced : No

Audio #4
ID : 5
Format : AC-3
Format/Info : Audio Coding 3
Mode extension : CM (complete main)
Format settings, Endianness : Big
Codec ID : A_AC3
Duration : 48 min
Bit rate mode : Constant
Bit rate : 384 kb/s
Channel(s) : 2 channels
Channel positions : Front: L R
Sampling rate : 48.0 kHz
Frame rate : 31.250 FPS (1536 spf)
Compression mode : Lossy
Stream size : 133 MiB (4%)
Title : Lostfilm
Language : Russian
Default : No
Forced : No

Audio #5
ID : 6
Format : AC-3
Format/Info : Audio Coding 3
Mode extension : CM (complete main)
Format settings, Endianness : Big
Codec ID : A_AC3
Duration : 48 min
Bit rate mode : Constant
Bit rate : 192 kb/s
Channel(s) : 2 channels
Channel positions : Front: L R
Sampling rate : 48.0 kHz
Frame rate : 31.250 FPS (1536 spf)
Compression mode : Lossy
Stream size : 66.5 MiB (2%)
Title : Кравец Рекордз
Language : Russian
Default : No
Forced : No

Audio #6
ID : 7
Format : E-AC-3
Format/Info : Audio Coding 3
Format settings, Endianness : Big
Codec ID : A_EAC3
Duration : 48 min
Bit rate mode : Constant
Bit rate : 192 kb/s
Channel(s) : 6 channels
Channel positions : Front: L C R, Side: L R, LFE
Sampling rate : 48.0 kHz
Frame rate : 187.500 FPS (256 spf)
Compression mode : Lossy
Delay relative to video : 24 ms
Stream size : 66.5 MiB (2%)
Title : eng
Language : English
Default : No
Forced : No

Text #1
ID : 8
Format : UTF-8
Codec ID : S_TEXT/UTF8
Codec ID/Info : UTF-8 Plain Text
Duration : 45 min
Bit rate : 65 b/s
Count of elements : 503
Stream size : 21.7 KiB (0%)
Title : rusFull
Language : Russian
Default : No
Forced : No

Text #2
ID : 9
Format : UTF-8
Codec ID : S_TEXT/UTF8
Codec ID/Info : UTF-8 Plain Text
Duration : 48 min
Bit rate : 52 b/s
Count of elements : 667
Stream size : 18.7 KiB (0%)
Title : engFull
Language : English
Default : No
Forced : No

Text #3
ID : 10
Format : UTF-8
Codec ID : S_TEXT/UTF8
Codec ID/Info : UTF-8 Plain Text
Duration : 48 min
Bit rate : 57 b/s
Count of elements : 744
Stream size : 20.3 KiB (0%)
Title : engSDH
Language : English
Default : No
Forced : No

Zina
Аватара пользователя
 
Раздал: 0 байт
Скачал: 0 байт
Ратио: Inf.
Сообщения: 408
Зарегистрирован: 01 июл 2014, 16:52
  • Торрент
Автор: Zina Хэш: ---
Добавлен: 21 авг 2020, 21:05 Приватный: Нет (DHT включён)
Статус: Проверен
Размер: 27.14 ГБ (29 145 371 012 байт)
Изменил:
---
Скачали: 0 (Раздающих: 0%)
Причина:
---
Здоровье: 100%
Сидеров: 30 Личеров: 14
Скорость раздачи: 0 байт/сек Скорость скачивания: 0 байт/сек
Последний сидер: 1 месяц 3 дня 2 часа 47 минут 12 секунд назад Последний личер: 1 месяц 3 дня 2 часа 47 минут 12 секунд назад
Для скачивания торрента необходимо зарегистрироваться или войти на трекер.

Форум Статистика

Сейчас этот форум просматривают: нет зарегистрированных пользователей и гости: 2

Настройки

Вернуться в Сериалы

cron
Ресурс не предоставляет электронные версии произведений, а занимается лишь коллекционированием и каталогизацией ссылок, присылаемых и публикуемых на форуме нашими читателями. Если вы являетесь правообладателем какого-либо представленного материала и не желаете чтобы ссылка на него находилась в нашем каталоге, свяжитесь с нами и мы незамедлительно удалим её. Файлы для обмена на трекере предоставлены пользователями сайта, и администрация не несёт ответственности за их содержание. Просьба не заливать файлы, защищенные авторскими правами, а также файлы нелегального содержания!