Модераторы: K15, Младшие модераторы, Модераторы

Стражи Галактики. Часть 2 / Guardians of the Galaxy Vol. 2 (2017) BDRip 1080p | Дополнительные материалы | Sub

Сообщение Sovetnik » 24 авг 2020, 00:42

#777
Информация о фильме
Название: Стражи Галактики. Часть 2
Оригинальное название: Guardians of the Galaxy Vol. 2
Год выпуска: 2017
Жанр: фантастика, боевик, приключения
Режиссер: Джеймс Ганн
В ролях: Крис Пратт, Зои Салдана, Дэйв Батиста, Вин Дизель, Брэдли Купер, Майкл Рукер, Карен Гиллан, Пом Клементьефф, Элизабет Дебики, Курт Рассел, Стильвестр Сталлоне

О фильме: Все в сборе: землянин Питер Квилл (Звездный Лорд), молчаливый громила Дракс, зеленокожая наемница Гамора, живое дерево Грут и говорящий енот. Герои не изменяют себе и с завидной регулярностью продолжают попадать в немыслимые ситуации, выпутываясь из них почти без ущерба (а иногда даже с пользой) для окружающих. На этот раз им предстоит раскрыть одну из самых главных тайн во всей Галактике: кто же на самом деле отец Питера Квилла?



Список материалов:
● Introduction by James Gunn (01:39)
● "Guardians Inferno" Music Video (03:35)
● Gag Reel (03:41)

The Making of "Guardians of the Galaxy: Vol. 2"
● In the Director's Chair with James Gunn" (8:36)
● Reunion Tour: The Music of Guardians of the Galaxy Vol. 2" (7:37)
● Showtime: The Cast of Vol. 2" (10:41)
● Living Planets and Talking Trees: The Visual Effects of Vol. 2" (10:44)

Deleted Scenes & Extended Scenes
● Adolescent Groot Extended (01:01)
● Memorial to the War on Xandar (01:18)
● Kraglin and Quill Talk Tunes (00:41)
● Mantis and Drax Feel the Sadness Extended (02:03)

Источник: GUARDIANS_OF_THE_GALAXY_VOL_2_EUR_BLUEBIRD от BLUEBIRD-HD.ORG
● Все материалы с русскими субтитрами

Страна: США
Продолжительность: 00:51:41
Перевод: Субтитры

Файл
Кодек: H264
Качество: BDRip 1080p
Видео: 1920x1080 (16:9), 23,976 fps, ~10000 kbps avg
Звук: 48 kHz, AC3, 6 ch, 640 kbps
Субтитры: Русские, английские

General
Unique ID : 208671706585466177364397353170121541571 (0x9CFCB5759DCB92548215ABD3044847C3)
Complete name : In the Director's Chair with James Gunn.mkv
Format : Matroska
Format version : Version 4
File size : 862 MiB
Duration : 8 min 36 s
Overall bit rate : 14.0 Mb/s
Movie name : Guardians of the Galaxy Vol. 2 (2017) [Extras | BDRip 1080p] by AlcohoLiTTO
Encoded date : UTC 2020-05-01 11:06:43
Writing application : mkvmerge v8.3.0 ('Over the Horizon') 32bit
Writing library : libebml v1.3.1 + libmatroska v1.4.2
Cover : Yes
Attachments : Cover.jpg

Video
ID : 1
Format : AVC
Format/Info : Advanced Video Codec
Format profile : High@L4.1
Format settings : CABAC / 5 Ref Frames
Format settings, CABAC : Yes
Format settings, Reference : 5 frames
Codec ID : V_MPEG4/ISO/AVC
Duration : 8 min 36 s
Bit rate : 13.3 Mb/s
Width : 1 920 pixels
Height : 1 080 pixels
Display aspect ratio : 16:9
Frame rate mode : Constant
Frame rate : 23.976 (24000/1001) FPS
Color space : YUV
Chroma subsampling : 4:2:0
Bit depth : 8 bits
Scan type : Progressive
Bits/(Pixel*Frame) : 0.268
Stream size : 819 MiB (95%)
Writing library : x264 core 157 r2958 57baac4
Encoding settings : cabac=1 / ref=5 / deblock=1:-3:-3 / analyse=0x3:0x113 / me=umh / subme=11 / psy=1 / psy_rd=1.05:0.00 / mixed_ref=1 / me_range=32 / chroma_me=1 / trellis=2 / 8x8dct=1 / cqm=0 / deadzone=21,11 / fast_pskip=0 / chroma_qp_offset=-2 / threads=8 / lookahead_threads=1 / sliced_threads=0 / nr=0 / decimate=0 / interlaced=0 / bluray_compat=0 / constrained_intra=0 / bframes=8 / b_pyramid=2 / b_adapt=2 / b_bias=0 / direct=3 / weightb=1 / open_gop=1 / weightp=2 / keyint=240 / keyint_min=24 / scenecut=40 / intra_refresh=0 / rc_lookahead=60 / rc=crf / mbtree=0 / crf=21.0 / qcomp=0.80 / qpmin=0 / qpmax=69 / qpstep=4 / vbv_maxrate=50000 / vbv_bufsize=62500 / crf_max=21.0 / nal_hrd=none / filler=0 / ip_ratio=1.30 / pb_ratio=1.20 / aq=2:0.50
Language : English
Default : Yes
Forced : No

Audio
ID : 2
Format : AC-3
Format/Info : Audio Coding 3
Commercial name : Dolby Digital
Codec ID : A_AC3
Duration : 8 min 36 s
Bit rate mode : Constant
Bit rate : 640 kb/s
Channel(s) : 6 channels
Channel layout : L R C LFE Ls Rs
Sampling rate : 48.0 kHz
Frame rate : 31.250 FPS (1536 SPF)
Compression mode : Lossy
Stream size : 39.4 MiB (5%)
Language : English
Service kind : Complete Main
Default : Yes
Forced : No

Text #1
ID : 3
Format : UTF-8
Codec ID : S_TEXT/UTF8
Codec ID/Info : UTF-8 Plain Text
Duration : 8 min 25 s
Bit rate : 182 b/s
Count of elements : 197
Stream size : 11.3 KiB (0%)
Language : Russian
Default : Yes
Forced : No

Text #2
ID : 4
Format : UTF-8
Codec ID : S_TEXT/UTF8
Codec ID/Info : UTF-8 Plain Text
Duration : 8 min 15 s
Bit rate : 147 b/s
Count of elements : 194
Stream size : 8.92 KiB (0%)
Language : English
Default : No
Forced : No

Sovetnik
Аватара пользователя
 
Раздал: 32.14 ТБ
Скачал: 13.23 ГБ
Ратио: 2488.285
Сообщения: 1918
Зарегистрирован: 13 фев 2014, 05:19
  • Торрент
Автор: Sovetnik Хэш: ---
Добавлен: 24 авг 2020, 00:42 Приватный: Нет (DHT включён)
Статус: Проверен
Размер: 4.2 ГБ (4 505 991 096 байт)
Изменил:
---
Скачали: 299 (Раздающих: 0%)
Причина:
---
Здоровье: 100%
Сидеров: 4 Личеров: 1
Скорость раздачи: 0 байт/сек Скорость скачивания: 0 байт/сек
Последний сидер: 1 год 1 месяц 20 дней 3 часа 48 минут 56 секунд назад Последний личер: 1 год 1 месяц 20 дней 3 часа 48 минут 56 секунд назад
Для скачивания торрента необходимо зарегистрироваться или войти на трекер.

Форум Статистика

Сейчас этот форум просматривают: нет зарегистрированных пользователей и гости: 1

Настройки

Вернуться в Доп. материалы к играм

cron
Ресурс не предоставляет электронные версии произведений, а занимается лишь коллекционированием и каталогизацией ссылок, присылаемых и публикуемых на форуме нашими читателями. Если вы являетесь правообладателем какого-либо представленного материала и не желаете чтобы ссылка на него находилась в нашем каталоге, свяжитесь с нами и мы незамедлительно удалим её. Файлы для обмена на трекере предоставлены пользователями сайта, и администрация не несёт ответственности за их содержание. Просьба не заливать файлы, защищенные авторскими правами, а также файлы нелегального содержания!
tracker_cron