Модераторы: K15, Младшие модераторы, Модераторы

Стражи Галактики / Guardians of the Galaxy (2014) BDRip 1080p | Дополнительные материалы | Sub

Сообщение Sovetnik » 24 авг 2020, 00:42

#777
Информация о фильме
Название: Стражи Галактики
Оригинальное название: Guardians of the Galaxy
Год выпуска: 2014
Жанр: фантастика, боевик, приключения
Режиссер: Джеймс Ганн
В ролях: Крис Прэтт, Зои Салдана, Дэйв Батиста, Вин Дизель, Брэдли Купер, Ли Пейс, Майкл Рукер, Карен Гиллан, Джимон Хонсу, Джон Си Райли

О фильме: Отважному путешественнику Питеру Квиллу попадает в руки таинственный артефакт, принадлежащий могущественному и безжалостному злодею Ронану, строящему коварные планы по захвату Вселенной. Питер оказывается в центре межгалактической охоты, где жертва — он сам.

Единственный способ спасти свою жизнь — объединиться с четверкой нелюдимых изгоев: воинственным енотом по кличке Ракета, человекоподобным деревом Грутом, смертельно опасной Гаморой и одержимым жаждой мести Драксом, также известным как Разрушитель. Когда Квилл понимает, какой силой обладает украденный артефакт и какую опасность он представляет для вселенной, одиночка пойдет на все, чтобы сплотить случайных союзников для решающей битвы за судьбу галактики.



Список материалов:
● Guide To The Galaxy with James Gunn (20:56)
● The Intergalactic Visual Effects For ''Guardians Of The Galaxy'' (07:11)
● Gag Reel (03:54)
● Exclusive Look At Marvel's ''Avengers - Age Of Ultron'' (02:17)

Deleted & Extended Scenes
● Sisterly Love (01:47)
● The Klyn Will Have to Do (00:46)
● No, I’m the Stupid One (00:31)
● Fake Laugh (00:27)
● Dancing Guard (00:50)

Источник: Guardians.of.the.Galaxy.2014.1080p.Blu-ray.AVC.DTS-HD.MA.7.1-NiP
● Все материалы с русскими субтитрами
● В удаленных и расширенных сценах дополнительно присутствует аудио дорожка с комментариями режиссёра Джеймса Ганна, а также русские/английские субтитры к ней

Страна: США
Продолжительность: 00:38:42
Перевод: Субтитры

Файл
Кодек: H264
Качество: BDRip 1080p
Видео: 1920x1080 (16:9), 23,976 fps, ~9500 kbps avg
Звук: 48 kHz, AC3, 6 ch, 640 kbps
Субтитры: Русские, английские

General
Unique ID : 229266929086053686610995210487869908454 (0xAC7B345375017224BD6F75686842A5E6)
Complete name : Guardians of the Galaxy [Extras] (2014) [BDrip 1080p]Guide To The Galaxy with James Gunn.mkv
Format : Matroska
Format version : Version 4
File size : 1.67 GiB
Duration : 20 min 56 s
Overall bit rate : 11.4 Mb/s
Movie name : Guardians of the Galaxy (2014) [Extras | BDRip 1080p] by AlcohoLiTTO
Encoded date : UTC 2020-04-27 17:12:10
Writing application : mkvmerge v8.3.0 ('Over the Horizon') 32bit
Writing library : libebml v1.3.1 + libmatroska v1.4.2
Cover : Yes
Attachments : Cover.jpg

Video
ID : 1
Format : AVC
Format/Info : Advanced Video Codec
Format profile : High@L5
Format settings : CABAC / 5 Ref Frames
Format settings, CABAC : Yes
Format settings, Reference : 5 frames
Codec ID : V_MPEG4/ISO/AVC
Duration : 20 min 56 s
Bit rate : 10.7 Mb/s
Width : 1 920 pixels
Height : 1 080 pixels
Display aspect ratio : 16:9
Frame rate mode : Constant
Frame rate : 23.976 (24000/1001) FPS
Color space : YUV
Chroma subsampling : 4:2:0
Bit depth : 8 bits
Scan type : Progressive
Bits/(Pixel*Frame) : 0.216
Stream size : 1.57 GiB (94%)
Writing library : x264 core 157 r2958 57baac4
Encoding settings : cabac=1 / ref=5 / deblock=1:-3:-3 / analyse=0x3:0x113 / me=umh / subme=11 / psy=1 / psy_rd=1.05:0.00 / mixed_ref=1 / me_range=32 / chroma_me=1 / trellis=2 / 8x8dct=1 / cqm=0 / deadzone=21,11 / fast_pskip=0 / chroma_qp_offset=-2 / threads=8 / lookahead_threads=1 / sliced_threads=0 / nr=0 / decimate=0 / interlaced=0 / bluray_compat=0 / constrained_intra=0 / bframes=8 / b_pyramid=2 / b_adapt=2 / b_bias=0 / direct=3 / weightb=1 / open_gop=1 / weightp=2 / keyint=240 / keyint_min=24 / scenecut=40 / intra_refresh=0 / rc_lookahead=60 / rc=crf / mbtree=0 / crf=20.0 / qcomp=0.80 / qpmin=0 / qpmax=69 / qpstep=4 / vbv_maxrate=50000 / vbv_bufsize=62500 / crf_max=20.0 / nal_hrd=none / filler=0 / ip_ratio=1.30 / pb_ratio=1.20 / aq=2:0.50
Language : English
Default : Yes
Forced : No

Audio
ID : 2
Format : AC-3
Format/Info : Audio Coding 3
Commercial name : Dolby Digital
Codec ID : A_AC3
Duration : 20 min 56 s
Bit rate mode : Constant
Bit rate : 640 kb/s
Channel(s) : 6 channels
Channel layout : L R C LFE Ls Rs
Sampling rate : 48.0 kHz
Frame rate : 31.250 FPS (1536 SPF)
Compression mode : Lossy
Stream size : 95.8 MiB (6%)
Language : English
Service kind : Complete Main
Default : Yes
Forced : No

Text #1
ID : 3
Format : UTF-8
Codec ID : S_TEXT/UTF8
Codec ID/Info : UTF-8 Plain Text
Duration : 20 min 51 s
Bit rate : 152 b/s
Count of elements : 426
Stream size : 23.3 KiB (0%)
Language : Russian
Default : Yes
Forced : No

Text #2
ID : 4
Format : UTF-8
Codec ID : S_TEXT/UTF8
Codec ID/Info : UTF-8 Plain Text
Duration : 20 min 51 s
Bit rate : 108 b/s
Count of elements : 383
Stream size : 16.6 KiB (0%)
Language : English
Default : No
Forced : No

Sovetnik
Аватара пользователя
 
Раздал: 32.14 ТБ
Скачал: 13.23 ГБ
Ратио: 2488.285
Сообщения: 1918
Зарегистрирован: 13 фев 2014, 05:19
  • Торрент
Автор: Sovetnik Хэш: ---
Добавлен: 24 авг 2020, 00:42 Приватный: Нет (DHT включён)
Статус: Проверен
Размер: 2.6 ГБ (2 795 580 250 байт)
Изменил:
---
Скачали: 524 (Раздающих: 0%)
Причина:
---
Здоровье: 100%
Сидеров: 5 Личеров: 3
Скорость раздачи: 0 байт/сек Скорость скачивания: 0 байт/сек
Последний сидер: 1 год 1 месяц 20 дней 3 часа 22 минуты 56 секунд назад Последний личер: 1 год 1 месяц 20 дней 3 часа 22 минуты 56 секунд назад
Для скачивания торрента необходимо зарегистрироваться или войти на трекер.

Форум Статистика

Сейчас этот форум просматривают: нет зарегистрированных пользователей и гости: 2

Настройки

Вернуться в Доп. материалы к играм

cron
Ресурс не предоставляет электронные версии произведений, а занимается лишь коллекционированием и каталогизацией ссылок, присылаемых и публикуемых на форуме нашими читателями. Если вы являетесь правообладателем какого-либо представленного материала и не желаете чтобы ссылка на него находилась в нашем каталоге, свяжитесь с нами и мы незамедлительно удалим её. Файлы для обмена на трекере предоставлены пользователями сайта, и администрация не несёт ответственности за их содержание. Просьба не заливать файлы, защищенные авторскими правами, а также файлы нелегального содержания!
tracker_cron