Модераторы: K15, Младшие модераторы, Модераторы

Мстители: Война Бесконечности / Avengers: Infinity War (2018) BDRip 1080p | Дополнительные материалы | Sub

Сообщение Sovetnik » 24 авг 2020, 00:42

#777
Информация о фильме
Название: Мстители: Война Бесконечности
Оригинальное название: Avengers: Infinity War
Год выпуска: 2018
Жанр: Фантастика, фэнтези, боевик, приключения
Режиссер: Энтони Руссо, Джо Руссо
В ролях: Роберт Дауни мл., Крис Хемсворт, Марк Руффало, Крис Эванс, Скарлетт Йоханссон, Дон Чидл, Бенедикт Камбербэтч, Том Холланд, Чэдвик Боузмэн, Зои Салдана

О фильме: Пока Мстители и их союзники продолжают защищать мир от различных опасностей, с которыми не смог бы справиться один супергерой, новая угроза возникает из космоса: Танос. Межгалактический тиран преследует цель собрать все шесть Камней Бесконечности - артефакты невероятной силы, с помощью которых можно менять реальность по своему желанию. Всё, с чем Мстители сталкивались ранее, вело к этому моменту - судьба Земли никогда ещё не была столь неопределённой.



Список материалов:
● Intro (01:32)
● Strange Alchemy (05:08)
● The Mad Titan (06:34)
● Beyond the Battle: Titan (09:36)
● Beyond the Battle: Wakanda (10:58)
● Gag Reel (02:05)

Удаленные сцены:
● Happy Knows Best (HD, 0:01:24)
● Hunt for the Mind Stone (HD, 0:01:25)
● The Guardians Get Their Groove Back (HD, 0:03:21)
● A Father's Choice (HD, 0:04:02)


Источник: AVENGERS_INFINITY_WAR_EUR_BLUEBIRD от BLUEBIRD-HD.ORG
● Все материалы с русскими субтитрами

Страна: США
Продолжительность: 00:46:09
Перевод: Субтитры

Файл
Кодек: H264
Качество: BDRip 1080p
Видео: 1920x1080 (16:9), 23,976 fps, ~9000 kbps avg
Звук: 48 kHz, AC3, 6 ch, 640 kbps
Субтитры: Русские, английские

General
Unique ID : 206445139101446627980100076491968152433 (0x9B4FE334F5F1A0888E9199DFDCD10371)
Complete name : Beyond the Battle ''Wakanda''.mkv
Format : Matroska
Format version : Version 4
File size : 922 MiB
Duration : 10 min 58 s
Overall bit rate : 11.7 Mb/s
Movie name : Avengers: Infinity War (2018) [Extras | BDRip 1080p] by AlcohoLiTTO
Encoded date : UTC 2020-04-13 23:39:35
Writing application : mkvmerge v8.3.0 ('Over the Horizon') 32bit
Writing library : libebml v1.3.1 + libmatroska v1.4.2
Cover : Yes
Attachments : Cover.jpg

Video
ID : 1
Format : AVC
Format/Info : Advanced Video Codec
Format profile : High@L4.1
Format settings : CABAC / 5 Ref Frames
Format settings, CABAC : Yes
Format settings, Reference : 5 frames
Codec ID : V_MPEG4/ISO/AVC
Duration : 10 min 58 s
Bit rate : 11.1 Mb/s
Width : 1 920 pixels
Height : 1 080 pixels
Display aspect ratio : 16:9
Frame rate mode : Constant
Frame rate : 23.976 (24000/1001) FPS
Color space : YUV
Chroma subsampling : 4:2:0
Bit depth : 8 bits
Scan type : Progressive
Bits/(Pixel*Frame) : 0.223
Stream size : 870 MiB (94%)
Writing library : x264 core 157 r2958 57baac4
Encoding settings : cabac=1 / ref=5 / deblock=1:-3:-3 / analyse=0x3:0x113 / me=umh / subme=11 / psy=1 / psy_rd=1.05:0.00 / mixed_ref=1 / me_range=32 / chroma_me=1 / trellis=2 / 8x8dct=1 / cqm=0 / deadzone=21,11 / fast_pskip=0 / chroma_qp_offset=-2 / threads=8 / lookahead_threads=2 / sliced_threads=0 / nr=0 / decimate=0 / interlaced=0 / bluray_compat=0 / constrained_intra=0 / bframes=10 / b_pyramid=2 / b_adapt=2 / b_bias=0 / direct=3 / weightb=1 / open_gop=1 / weightp=2 / keyint=240 / keyint_min=24 / scenecut=40 / intra_refresh=0 / rc_lookahead=60 / rc=crf / mbtree=0 / crf=20.0 / qcomp=0.80 / qpmin=0 / qpmax=69 / qpstep=4 / vbv_maxrate=50000 / vbv_bufsize=62500 / crf_max=20.0 / nal_hrd=none / filler=0 / ip_ratio=1.30 / pb_ratio=1.20 / aq=2:0.50
Language : English
Default : Yes
Forced : No

Audio
ID : 2
Format : AC-3
Format/Info : Audio Coding 3
Commercial name : Dolby Digital
Codec ID : A_AC3
Duration : 10 min 58 s
Bit rate mode : Constant
Bit rate : 640 kb/s
Channel(s) : 6 channels
Channel layout : L R C LFE Ls Rs
Sampling rate : 48.0 kHz
Frame rate : 31.250 FPS (1536 SPF)
Compression mode : Lossy
Stream size : 50.3 MiB (5%)
Language : English
Service kind : Complete Main
Default : Yes
Forced : No

Text #1
ID : 3
Format : UTF-8
Codec ID : S_TEXT/UTF8
Codec ID/Info : UTF-8 Plain Text
Duration : 10 min 34 s
Bit rate : 196 b/s
Count of elements : 238
Stream size : 15.2 KiB (0%)
Language : Russian
Default : Yes
Forced : Yes

Text #2
ID : 4
Format : UTF-8
Codec ID : S_TEXT/UTF8
Codec ID/Info : UTF-8 Plain Text
Duration : 10 min 29 s
Bit rate : 163 b/s
Count of elements : 230
Stream size : 12.6 KiB (0%)
Language : English
Default : No
Forced : No

Sovetnik
Аватара пользователя
 
Раздал: 32.14 ТБ
Скачал: 13.23 ГБ
Ратио: 2488.285
Сообщения: 1918
Зарегистрирован: 13 фев 2014, 05:19
  • Торрент
Автор: Sovetnik Хэш: ---
Добавлен: 24 авг 2020, 00:42 Приватный: Нет (DHT включён)
Статус: Проверен
Размер: 3.17 ГБ (3 406 210 315 байт)
Изменил:
---
Скачали: 770 (Раздающих: 0%)
Причина:
---
Здоровье: 100%
Сидеров: 7 Личеров: 0
Скорость раздачи: 0 байт/сек Скорость скачивания: 0 байт/сек
Последний сидер: 1 год 1 месяц 20 дней 3 часа 24 минуты 53 секунды назад Последний личер: Нет
Для скачивания торрента необходимо зарегистрироваться или войти на трекер.

Форум Статистика

Сейчас этот форум просматривают: нет зарегистрированных пользователей и гости: 1

Настройки

Вернуться в Доп. материалы к играм

cron
Ресурс не предоставляет электронные версии произведений, а занимается лишь коллекционированием и каталогизацией ссылок, присылаемых и публикуемых на форуме нашими читателями. Если вы являетесь правообладателем какого-либо представленного материала и не желаете чтобы ссылка на него находилась в нашем каталоге, свяжитесь с нами и мы незамедлительно удалим её. Файлы для обмена на трекере предоставлены пользователями сайта, и администрация не несёт ответственности за их содержание. Просьба не заливать файлы, защищенные авторскими правами, а также файлы нелегального содержания!
tracker_cron