Модераторы: K15, Модераторы, Младшие модераторы

Догма / Dogma (Кевин Смит) [1999, фэнтези, комедия, приключения, HDRip] MVO(ukr)

Сообщение ViKa » 23 апр 2014, 06:34

  • Постеры
Язык: Украинский, cубтитры: отсутствуют
Формат: HDRip, AVI, XviD, AC3
Страна: США
Режиссер: Кевин Смит
Жанр: фэнтези, комедия, приключения
Продолжительность: 02:08:11
Год выпуска: 1999
В ролях: Бэн Аффлек , Мэтт Дэймон , Линда Фиорентино , Крис Рок , Сальма Хайек , Алан Рикман
Описание: Два падших ангела, Локи и Бартлби, обреченные вечность торчать в штате Висконсин, узнали, что у них есть шанс вернуться в рай. Для этого нужно всего лишь воспользоваться ошибочной церковной католической догмой, провозглашенной кардиналом-новатором: каждый, прошедший через освященную арку в соборе в Нью-Джерси, получает отпущение грехов. Пройдя через нее, Локи и Бартлби получат прощение, далее им надо стать смертными, умереть и возвратиться в рай.

Есть только одно но. Если это произойдет, то исчезнет все сущее на земле, включая род людской. Помешать этому может только пра-пра… пра-пра племянница Иисуса Христа по имени Вифания, которой помогают тринадцатый апостол Руфус и два смертных пророка, одного из которых играет сам режиссер, а второго — его друг Джейсон Мьюз. К ним присоединяется уже давно живущая на земле Муза по имени Серендипити, подрабатывающая стриптизёршей…




Видео: 720x304 (2.35:1), 23.976 fps, XviD build 50 ~1334 kbps avg, 0.25 bit/pixel
Аудио: 48 kHz, AC3 Dolby Digital, 3/2 (L,C,R,l,r) + LFE ch, ~448 kbps

Общее
Полное имя : C:\Новая папка\Новая папка\Dogma (1999) [ukr] BDRip [Hurtom].avi
Формат : AVI
Формат/Информация : Audio Video Interleave
Размер файла : 1,60 Гбайт
Продолжительность : 2 ч. 8 м.
Общий поток : 1792 Кбит/сек
Название фильма : Догма / Dogma (1999) [Hurtom]
Режиссёр : Омікрон hurtom.com
Тема : Озвучено студією Омікрон на замовлення hurtom.com
Программа кодирования : VirtualDubMod 1.5.10.2 (build 2540/release)
Библиотека кодирования : VirtualDubMod build 2540/release

Видео
Идентификатор : 0
Формат : MPEG-4 Visual
Профиль формата : Advanced Simple@L5
Параметр BVOP формата : 2
Параметр QPel формата : Нет
Параметр GMC формата : Без точки перехода
Параметр матрицы формата : Default (H.263)
Идентификатор кодека : XVID
Идентификатор кодека/Подсказка : XviD
Продолжительность : 2 ч. 8 м.
Битрейт : 1335 Кбит/сек
Ширина : 720 пикселей
Высота : 304 пикселя
Соотношение сторон : 2,35:1
Частота кадров : 23,976 кадра/сек
Цветовое пространство : YUV
Субдискретизация насыщенности : 4:2:0
Битовая глубина : 8 бит
Тип развёртки : Прогрессивная
Метод сжатия : С потерями
Бит/(Пиксели*Кадры) : 0.254
Размер потока : 1,20 Гбайт (74%)
Библиотека кодирования : XviD 1.2.1 (UTC 2008-12-04)

Аудио
Идентификатор : 1
Формат : AC-3
Формат/Информация : Audio Coding 3
Расширение режима : CM (complete main)
Параметр Endianness формата : Big
Идентификатор кодека : 2000
Продолжительность : 2 ч. 8 м.
Вид битрейта : Постоянный
Битрейт : 448 Кбит/сек
Каналы : 6 каналов
Расположение каналов : Front: L C R, Side: L R, LFE
Частота : 48,0 КГц
Битовая глубина : 16 бит
Метод сжатия : С потерями
Размер потока : 411 Мбайт (25%)
Выравнивание : Разделение по промежуткам
Продолжительность промежутка : 42 мс. (1,00 видеокадр)
Время предзагрузки промежутка : 500 мс.




Показать скриншоты






Закрыть
ViKa
 
Раздал: 4.71 ТБ
Скачал: 139.97 ГБ
Ратио: 34.434
Сообщения: 25821
Зарегистрирован: 14 мар 2009, 20:33
  • Торрент
Автор: ViKa Хэш: ---
Добавлен: 23 апр 2014, 06:34 Приватный: Нет (DHT включён)
Статус: Проверен
Размер: 1.6 ГБ (1 722 949 632 байт)
Изменил:
---
Скачали: 0 (Раздающих: 0%)
Причина:
---
Здоровье: 0%
Сидеров: 0 Личеров: 0
Скорость раздачи: 0 байт/сек Скорость скачивания: 0 байт/сек
Последний сидер: Нет Последний личер: Нет
Для скачивания торрента необходимо зарегистрироваться или войти на трекер.

Форум Статистика

Сейчас этот форум просматривают: нет зарегистрированных пользователей и гости: 1

Настройки

Вернуться в Доп. материалы к играм

cron
Ресурс не предоставляет электронные версии произведений, а занимается лишь коллекционированием и каталогизацией ссылок, присылаемых и публикуемых на форуме нашими читателями. Если вы являетесь правообладателем какого-либо представленного материала и не желаете чтобы ссылка на него находилась в нашем каталоге, свяжитесь с нами и мы незамедлительно удалим её. Файлы для обмена на трекере предоставлены пользователями сайта, и администрация не несёт ответственности за их содержание. Просьба не заливать файлы, защищенные авторскими правами, а также файлы нелегального содержания!