Модераторы: K15, Модераторы, Младшие модераторы

Наш сад. Благоухающий май (Марина Овчинникова)

Сообщение ViKa » 11 фев 2015, 21:38

Перевод: Не требуется, cубтитры: отсутствуют
Формат: SATRip, AVI, XviD, MP3

Режиссер: Марина Овчинникова
Жанр: Обучающее видео, сад, огород
Продолжительность: 00:17:44
Год выпуска: 2014

Описание: Наш сад, программа для тех, кто знает толк в садоводстве. Сегодня в нашем саду.

1. Любимый запах и не только, разбираемся в черемухе.
2. Розовая миндальная пена, может быть в каждом саду.
3. Наводим в саду уют, дом и фонтан на один сезон.
4. Вырастим добрый росток вместе с союзом садоводов.

Видео: 704 x 396 (1.778:1), 25 fps, XviD MPEG-4, 1650 Кбит/сек, 0.237 Бит/Пикс.
Аудио: 48, 0 КГц, MPEG Layer 3, 2 канал, 128 Кбит/сек

Доп. информация:
Формат : AVI
Формат/Информация : Audio Video Interleave
Размер файла : 227 Мбайт
Продолжительность : 17 м.
Общий поток : 1788 Кбит/сек
Программа кодирования : VirtualDubMod 1.5.10.2 (build 2540/release)
Библиотека кодирования : VirtualDubMod build 2540/release

Видео
Идентификатор : 0
Формат : MPEG-4 Visual
Профиль формата : Advanced Simple@L5
Параметр BVOP формата : 2
Параметр QPel формата : Нет
Параметр GMC формата : Без точки перехода
Параметр матрицы формата : Default (H.263)
Режим смешивания : Сжатый битовый поток
Идентификатор кодека : XVID
Идентификатор кодека/Подсказка : XviD
Продолжительность : 17 м.
Битрейт : 1650 Кбит/сек
Ширина : 704 пикселя
Высота : 396 пикселей
Соотношение сторон : 16:9
Частота кадров : 25,000 кадров/сек
Цветовое пространство : YUV
Субдискретизация насыщенности : 4:2:0
Битовая глубина : 8 бит
Тип развёртки : Прогрессивная
Метод сжатия : С потерями
Бит/(Пиксели*Кадры) : 0.237
Размер потока : 209 Мбайт (92%)
Библиотека кодирования : XviD 64

Аудио
Идентификатор : 1
Формат : MPEG Audio
Версия формата : Version 1
Профиль формата : Layer 3
Идентификатор кодека : 55
Идентификатор кодека/Подсказка : MP3
Продолжительность : 17 м.
Вид битрейта : Постоянный
Битрейт : 128 Кбит/сек
Каналы : 2 канала
Частота : 48,0 КГц
Метод сжатия : С потерями
Размер потока : 16,2 Мбайт (7%)
Выравнивание : Соединение по промежуткам
Продолжительность промежутка : 40 мс. (1,00 видеокадр)
Время предзагрузки промежутка : 504 мс.
Библиотека кодирования : LAME3.98r
Настройки программы : -m s -V 4 -q 3 -lowpass 17 -b 128














У вас нет необходимых прав для просмотра вложений в этом сообщении.
ViKa
 
Раздал: 4.71 ТБ
Скачал: 139.97 ГБ
Ратио: 34.434
Сообщения: 25821
Зарегистрирован: 14 мар 2009, 20:33

Форум Статистика

Сейчас этот форум просматривают: нет зарегистрированных пользователей и гости: 2

Настройки

Вернуться в PDA / Phone / Android / Palm

cron
Ресурс не предоставляет электронные версии произведений, а занимается лишь коллекционированием и каталогизацией ссылок, присылаемых и публикуемых на форуме нашими читателями. Если вы являетесь правообладателем какого-либо представленного материала и не желаете чтобы ссылка на него находилась в нашем каталоге, свяжитесь с нами и мы незамедлительно удалим её. Файлы для обмена на трекере предоставлены пользователями сайта, и администрация не несёт ответственности за их содержание. Просьба не заливать файлы, защищенные авторскими правами, а также файлы нелегального содержания!