Модераторы: K15, Младшие модераторы, Модераторы

Калигула и Мессалина / Caligula et Messaline (Бруно Маттеи / Bruno Mattei и др.) [1981, драма, приключения, эротика, BDRip 1080p / P2]

Сообщение 7Max7 » 04 апр 2022, 03:12

#777

Калигула и Мессалина / Caligula et Messaline


Год выпуска: 1981
Страна: Италия, Франция
Продолжительность: 01:41:07
Перевод: Профессиональный (двухголосый закадровый) СВ-Дубль
Жанр: драма, приключения, эротика

Режиссер: Бруно Маттеи / Bruno Mattei, Антонио Пассалия / Antonio Passalica, Жан Жак Ренон / Jean-Jacques Renon

В ролях: Владимир Брайович, Бетти Роланд, Франсуаза Бланчард, Рауль Кабрера, Джино Турини, Анджело Аркулла, Петр Станислас, Винсент Ло Монако, Фанни Магир, Лоуренс Ловалл...

Описание:
Известная своей коварностью и распутством Мессалина показана в этом фильме предметом желания и причиной гибели сильных мира сего. Калигула - безумный император - становится жертвой преступного сговора, в котором приняла участие и его вероломная жена. После смерти Калигулы Мессалина недолго носит траур и выходит замуж за одного из своих любовников Клавдия. Несмотря на обилие откровенных сцен, создатели фильма уделили внимание и сюжету. Помимо постельных сцен Мессалины и Клавдия, у зрителя есть возможность наблюдать и происходящее за стенами их спальни. Мы видим, как осторожно и неподкупно начинает свое правление преемник Калигулы, и как ему удается восстановить пошатнувшееся положение Римской империи....



Сэмпл



Тип релиза: BDRip 1080p
Контейнер: MKV
Видео: 1920x810 (2.40:1), 23.976 fps, AVC, ~11.0 Mbps, 0.295 bits/pixel
Аудио 1: Russian, 48.0 KHz, AC3, 2 ch, 192 Kbps - СВ-Дубль
Аудио 2: English, 48.0 KHz, AAC LC, 2 ch, 128 Kbps
Субтитры: английские
Оригинальная аудиодорожка: английский

Код: Выделить всё
General
Unique ID                   : 188422510844779052320038581043765957032 (0x8DC0DB078123D6295F4BF8D1013BD1A8)
Complete name               : E:Caligula and Messalina. BDRip 1080p.mkv
Format                      : Matroska
Format version              : Version 4
File size                   : 8.00 GiB
Duration                    : 1 h 41 min
Overall bit rate            : 11.3 Mb/s
Encoded date                : UTC 2022-03-31 22:32:53
Writing application         : mkvmerge v44.0.0 ('Domino') 64-bit
Writing library             : libebml v1.3.10 + libmatroska v1.5.2

Video
ID                          : 1
Format                      : AVC
Format/Info                 : Advanced Video Codec
Format profile              : High@L4.1
Format settings             : CABAC / 5 Ref Frames
Format settings, CABAC      : Yes
Format settings, Reference  : 5 frames
Codec ID                    : V_MPEG4/ISO/AVC
Duration                    : 1 h 41 min
Bit rate                    : 11.0 Mb/s
Width                       : 1 920 pixels
Height                      : 810 pixels
Display aspect ratio        : 2.40:1
Frame rate mode             : Constant
Frame rate                  : 23.976 (24000/1001) FPS
Color space                 : YUV
Chroma subsampling          : 4:2:0
Bit depth                   : 8 bits
Scan type                   : Progressive
Bits/(Pixel*Frame)          : 0.295
Stream size                 : 7.77 GiB (97%)
Writing library             : x264 core 163 r3059 b684ebe0
Encoding settings           : cabac=1 / ref=5 / deblock=1:-3:-3 / analyse=0x3:0x133 / me=umh / subme=10 / psy=1 / psy_rd=1.00:0.00 / mixed_ref=1 / me_range=32 / chroma_me=1 / trellis=2 / 8x8dct=1 / cqm=0 / deadzone=21,11 / fast_pskip=0 / chroma_qp_offset=-2 / threads=15 / lookahead_threads=3 / sliced_threads=0 / nr=0 / decimate=0 / interlaced=0 / bluray_compat=0 / constrained_intra=0 / bframes=16 / b_pyramid=2 / b_adapt=2 / b_bias=0 / direct=3 / weightb=1 / open_gop=0 / weightp=2 / keyint=240 / keyint_min=24 / scenecut=40 / intra_refresh=0 / rc_lookahead=60 / rc=2pass / mbtree=0 / bitrate=11000 / ratetol=1.0 / qcomp=0.60 / qpmin=0 / qpmax=69 / qpstep=4 / cplxblur=20.0 / qblur=0.5 / vbv_maxrate=62500 / vbv_bufsize=78125 / nal_hrd=none / filler=0 / ip_ratio=1.40 / pb_ratio=1.30 / aq=2:1.00
Language                    : English
Default                     : Yes
Forced                      : No
Color range                 : Limited
Color primaries             : BT.709
Transfer characteristics    : BT.709
Matrix coefficients         : BT.709

Audio #1
ID                          : 2
Format                      : AC-3
Format/Info                 : Audio Coding 3
Commercial name             : Dolby Digital
Codec ID                    : A_AC3
Duration                    : 1 h 41 min
Bit rate mode               : Constant
Bit rate                    : 192 kb/s
Channel(s)                  : 2 channels
Channel layout              : L R
Sampling rate               : 48.0 kHz
Frame rate                  : 31.250 FPS (1536 SPF)
Compression mode            : Lossy
Stream size                 : 139 MiB (2%)
Title                       : СВ-Дубль
Language                    : Russian
Service kind                : Complete Main
Default                     : Yes
Forced                      : No

Audio #2
ID                          : 3
Format                      : AAC LC
Format/Info                 : Advanced Audio Codec Low Complexity
Codec ID                    : A_AAC-2
Duration                    : 1 h 41 min
Bit rate                    : 132 kb/s
Channel(s)                  : 2 channels
Channel layout              : L R
Sampling rate               : 48.0 kHz
Frame rate                  : 46.875 FPS (1024 SPF)
Compression mode            : Lossy
Stream size                 : 94.4 MiB (1%)
Language                    : English
Default                     : No
Forced                      : No

Text #1
ID                          : 4
Format                      : UTF-8
Codec ID                    : S_TEXT/UTF8
Codec ID/Info               : UTF-8 Plain Text
Duration                    : 1 h 39 min
Bit rate                    : 40 b/s
Count of elements           : 869
Stream size                 : 29.3 KiB (0%)
Language                    : English
Default                     : No
Forced                      : No

Text #2
ID                          : 5
Format                      : UTF-8
Codec ID                    : S_TEXT/UTF8
Codec ID/Info               : UTF-8 Plain Text
Duration                    : 1 h 39 min
Bit rate                    : 47 b/s
Count of elements           : 1147
Stream size                 : 34.6 KiB (0%)
Title                       : SDH
Language                    : English
Default                     : No
Forced                      : No

Menu
00:00:00.000                : :Chapter 1
00:11:23.391                : :Chapter 2
00:22:37.064                : :Chapter 3
00:29:16.129                : :Chapter 4
00:39:49.053                : :Chapter 5
00:54:35.606                : :Chapter 6
01:06:43.374                : :Chapter 7
01:20:54.224                : :Chapter 8
01:28:29.054                : :Chapter 9
01:38:14.931                : :Chapter 10



7Max7
Аватара пользователя
 
Раздал: 491.08 ГБ
Скачал: 4.25 ГБ
Ратио: 115.495
Сообщения: 481
Зарегистрирован: 14 фев 2014, 18:28
  • Торрент
Автор: 7Max7 Хэш: ---
Добавлен: 04 апр 2022, 03:12 Приватный: Нет (DHT включён)
Статус: Проверен
Размер: 8 ГБ (8 587 870 658 байт)
Изменил:
---
Скачали: 736 (Раздающих: 0%)
Причина:
---
Здоровье: 100%
Сидеров: 167 Личеров: 35
Скорость раздачи: 0 байт/сек Скорость скачивания: 0 байт/сек
Последний сидер: 2 месяца 15 дней 15 часов 15 минут 28 секунд назад Последний личер: 2 месяца 15 дней 15 часов 15 минут 28 секунд назад
Для скачивания торрента необходимо зарегистрироваться или войти на трекер.

Форум Статистика

Сейчас этот форум просматривают: нет зарегистрированных пользователей и гости: 1

Настройки

Вернуться в Эротика / XXX

cron
Ресурс не предоставляет электронные версии произведений, а занимается лишь коллекционированием и каталогизацией ссылок, присылаемых и публикуемых на форуме нашими читателями. Если вы являетесь правообладателем какого-либо представленного материала и не желаете чтобы ссылка на него находилась в нашем каталоге, свяжитесь с нами и мы незамедлительно удалим её. Файлы для обмена на трекере предоставлены пользователями сайта, и администрация не несёт ответственности за их содержание. Просьба не заливать файлы, защищенные авторскими правами, а также файлы нелегального содержания!