Модераторы: K15, Младшие модераторы, Модераторы

Сильвия в плену сладострастия / Sylvia im Reich der Wollust (Франц Йозеф Готлиб) [1977, Комедия, эротика, DVDRip-AVC / A]

Сообщение 7Max7 » 21 мар 2022, 23:25

#777

Сильвия в плену сладострастия / Sylvia im Reich der Wollust


Информация о фильме
Название: Сильвия в плену сладострастия
Оригинальное название: Sylvia im Reich der Wollust
Год выхода: 1977
Страна: ФРГ
Студия: Divina-Film, Lisa-Film
Продолжительность: 01:24:50
Перевод : Авторский (одноголосый закадровый) не опознан
Жанр: Комедия, эротика

Режиссер: Франц Йозеф Готлиб

В ролях: Коринн Бродбек, Джанни Гарко, Оливия Паскаль, Фритс Хассольдт, Бетти Верже, Бриджитт Штробель, Хьюберт Бергер, Фи Хегер, Мишель Жако и др.

О фильме:
Молодая и привлекательная женщина Сильвия управляет успешным модным бутиком и пренебрегает своим мужем Куртом. Он больше интересуется телевизором и сигаретами, чем прелестями противоположного пола, что расстраивает ее. Во время поездки на конгресс психоаналитиков она видит сны, похожие на героиню Йонга Айседору, читая эмансипированный роман под названием "Радость полета в собственный мир". Сначала она занимается сексом с любовником своей подруги, а потом заводит роман с бизнесменом Йоргом. Она окончательно осознает, что полное наслаждение всеми сексуальными дневными и ночными мечтами само по себе не делает никого свободным человеком.





Файл
Формат: MKV
Качество: DVDRip-AVC
Видео: MPEG-4 AVC, 736x468, 2700 Кбит/с
Аудио: Русский, немецкий (АС3, 2 ch, 192 Кбит/с)
Субтитры: Нет

x264 [info]: frame I:706 Avg QP:19.62 size: 39388
x264 [info]: frame P:25645 Avg QP:21.07 size: 23918
x264 [info]: frame B:100917 Avg QP:22.90 size: 10710

Общее
Уникальный идентификатор : 214906430952431235343934189052745061826 (0xA1AD791A8B1104163BA0E62364C995C2)
Полное имя : D:MOVIESSilviya.v.plenu.sladostrastiya.1977.DVDRip-AVC.ExKinoRay.mkv
Формат : Matroska
Версия формата : Version 4
Размер файла : 1,83 Гбайт
Продолжительность : 1 ч. 24 м.
Общий поток : 3 086 Кбит/сек
Дата кодирования : UTC 2022-03-21 04:28:14
Программа кодирования : mkvmerge v48.0.0 ('Fortress Around Your Heart') 64-bit
Библиотека кодирования : libebml v1.4.0 + libmatroska v1.6.0

Видео
Идентификатор : 1
Формат : AVC
Формат/Информация : Advanced Video Codec
Профиль формата : High@L4.1
Настройки формата : CABAC / 14 Ref Frames
Параметр CABAC формата : Да
Параметр RefFrames формата : 14 кадров
Идентификатор кодека : V_MPEG4/ISO/AVC
Продолжительность : 1 ч. 24 м.
Битрейт : 2 700 Кбит/сек
Ширина : 736 пикселей
Высота : 468 пикселей
Соотношение сторон : 16:10
Режим частоты кадров : Постоянный
Частота кадров : 25,000 кадров/сек
Цветовое пространство : YUV
Субдискретизация насыщенности : 4:2:0
Битовая глубина : 8 бит
Тип развёртки : Прогрессивная
Бит/(Пиксели*Кадры) : 0.314
Размер потока : 1,60 Гбайт (87%)
Библиотека кодирования : x264 core 164 r3081 19856cc
Настройки программы : cabac=1 / ref=14 / deblock=1:-3:-2 / analyse=0x3:0x133 / me=umh / subme=10 / psy=1 / psy_rd=1.05:0.17 / mixed_ref=1 / me_range=32 / chroma_me=1 / trellis=2 / 8x8dct=1 / cqm=0 / deadzone=21,11 / fast_pskip=0 / chroma_qp_offset=-3 / threads=6 / lookahead_threads=1 / sliced_threads=0 / nr=0 / decimate=0 / interlaced=0 / bluray_compat=0 / constrained_intra=0 / bframes=10 / b_pyramid=2 / b_adapt=2 / b_bias=0 / direct=3 / weightb=1 / open_gop=0 / weightp=2 / keyint=250 / keyint_min=25 / scenecut=40 / intra_refresh=0 / rc=2pass / mbtree=0 / bitrate=2700 / ratetol=1.0 / qcomp=0.60 / qpmin=0 / qpmax=69 / qpstep=4 / cplxblur=20.0 / qblur=0.5 / ip_ratio=1.40 / pb_ratio=1.30 / aq=1:1.00
Язык : German
Default : Да
Forced : Нет

Аудио #1
Идентификатор : 2
Формат : AC-3
Формат/Информация : Audio Coding 3
Коммерческое название : Dolby Digital
Идентификатор кодека : A_AC3
Продолжительность : 1 ч. 24 м.
Вид битрейта : Постоянный
Битрейт : 192 Кбит/сек
Каналы : 2 канала
Channel layout : L R
Частота : 48,0 КГц
Частота кадров : 31,250 кадров/сек (1536 SPF)
Метод сжатия : С потерями
Размер потока : 117 Мбайт (6%)
Язык : Russian
Service kind : Complete Main
Default : Да
Forced : Нет

Аудио #2
Идентификатор : 3
Формат : AC-3
Формат/Информация : Audio Coding 3
Коммерческое название : Dolby Digital
Идентификатор кодека : A_AC3
Продолжительность : 1 ч. 24 м.
Вид битрейта : Постоянный
Битрейт : 192 Кбит/сек
Каналы : 2 канала
Channel layout : L R
Частота : 48,0 КГц
Частота кадров : 31,250 кадров/сек (1536 SPF)
Метод сжатия : С потерями
Размер потока : 117 Мбайт (6%)
Язык : German
Service kind : Complete Main
Default : Нет
Forced : Нет

Меню
00:00:00.000 : en:Chapter 01
00:04:13.760 : en:Chapter 02
00:11:17.040 : en:Chapter 03
00:18:33.840 : en:Chapter 04
00:20:58.400 : en:Chapter 05
00:23:06.840 : en:Chapter 06
00:27:22.680 : en:Chapter 07
00:37:35.240 : en:Chapter 08
00:41:41.200 : en:Chapter 09
00:48:00.280 : en:Chapter 10
00:51:21.000 : en:Chapter 11
00:56:22.600 : en:Chapter 12
01:01:25.760 : en:Chapter 13
01:06:50.240 : en:Chapter 14
01:16:36.280 : en:Chapter 15
01:20:52.640 : en:Chapter 16

7Max7
Аватара пользователя
 
Раздал: 491.08 ГБ
Скачал: 4.25 ГБ
Ратио: 115.495
Сообщения: 481
Зарегистрирован: 14 фев 2014, 18:28
  • Торрент
Автор: 7Max7 Хэш: ---
Добавлен: 21 мар 2022, 23:25 Приватный: Нет (DHT включён)
Статус: Проверен
Размер: 1.83 ГБ (1 963 626 398 байт)
Изменил:
---
Скачали: 3545 (Раздающих: 0%)
Причина:
---
Здоровье: 100%
Сидеров: 408 Личеров: 47
Скорость раздачи: 0 байт/сек Скорость скачивания: 0 байт/сек
Последний сидер: 2 месяца 19 дней 22 часа 45 минут 15 секунд назад Последний личер: 4 дня 14 часов 33 минуты 39 секунд назад
Для скачивания торрента необходимо зарегистрироваться или войти на трекер.

Форум Статистика

Сейчас этот форум просматривают: нет зарегистрированных пользователей и гости: 1

Настройки

Вернуться в Эротика / XXX

cron
Ресурс не предоставляет электронные версии произведений, а занимается лишь коллекционированием и каталогизацией ссылок, присылаемых и публикуемых на форуме нашими читателями. Если вы являетесь правообладателем какого-либо представленного материала и не желаете чтобы ссылка на него находилась в нашем каталоге, свяжитесь с нами и мы незамедлительно удалим её. Файлы для обмена на трекере предоставлены пользователями сайта, и администрация не несёт ответственности за их содержание. Просьба не заливать файлы, защищенные авторскими правами, а также файлы нелегального содержания!
tracker_cron