Модераторы: K15, Младшие модераторы, Модераторы

Скандальные связи / Rose rosse per una squillo / Scandalous Liaisons (1993) VHSRip | А

Сообщение 7Max7 » 23 фев 2022, 21:29

#777

Информация о фильме
Название: Скандальные связи
Оригинальное название: Rose rosse per una squillo / Scandalous Liaisons
Год выпуска: 1993
Жанр: Триллер, эротика

Режиссер: Альберт Барни, Пино Бурикки, Бруно Габурро

В ролях: Карин Шуберт, Паола Кваттрини, Флоранс Герен, Далила Ди Ладзаро, Морис Поли, Росси де Пальма, Джованни Веттораццо, Габриэль Гори, Жерард Манцетти, Гаэтано Руссо, Трэйси Келли

О фильме:
Низкопробная эротика, замаскированная для приличия под триллер. Владелица дома фотомоделей шантажирует политиков, поставляя им своих сотрудниц и фотографируя парочки в нужных позах. Все остальное - демонстрация голого тела на самом примитивном уровне. (М. Иванов)





Страна: Италия
Продолжительность: 01:23:43
Перевод: Авторский одноголосый - Михаил Иванов

Файл
Кодек: XviD
Качество: VHSRip
Видео: 2134 Кбит/с, 704x528
Звук: AC3, 2 ch, 192 Кбит/с

Скандальные связи - Scandalous Liaisons [by ilgiz01].avi
Format : AVI
Format/Info : Audio Video Interleave
File size : 1.37 GiB
Duration : 1 h 23 min
Overall bit rate : 2 336 kb/s
Movie name : Скандальные связи - Scandalous Liaisons [by ilgiz01]
Director : by ilgiz01
Writing application : VirtualDubMod 1.5.10.3 | http://www.virtualdub-fr.org || (build 2550/release)
Copyright : Edich2
Video
ID : 0
Format : MPEG-4 Visual
Format profile : Advanced Simple@L5
Format settings, BVOP : 2
Format settings, QPel : No
Format settings, GMC : No warppoints
Format settings, Matrix : Custom
Codec ID : XVID
Codec ID/Hint : XviD
Duration : 1 h 23 min
Bit rate : 2 135 kb/s
Width : 704 pixels
Height : 528 pixels
Display aspect ratio : 4:3
Frame rate : 25.000 FPS
Color space : YUV
Chroma subsampling : 4:2:0
Bit depth : 8 bits
Scan type : Progressive
Compression mode : Lossy
Bits/(Pixel*Frame) : 0.230
Stream size : 1.25 GiB (91%)
Writing library : XviD 73
Audio
ID : 1
Format : AC-3
Format/Info : Audio Coding 3
Format settings, Endianness : Big
Codec ID : 2000
Duration : 1 h 23 min
Bit rate mode : Constant
Bit rate : 192 kb/s
Channel(s) : 2 channels
Channel positions : Front: L R
Sampling rate : 48.0 kHz
Frame rate : 31.250 FPS (1536 spf)
Bit depth : 16 bits
Compression mode : Lossy
Stream size : 115 MiB (8%)
Alignment : Split accross interleaves
Interleave, duration : 40 ms (1.00 video frame)
Interleave, preload duratio : 500 ms
Service kind : Complete Main



7Max7
Аватара пользователя
 
Раздал: 491.08 ГБ
Скачал: 4.25 ГБ
Ратио: 115.495
Сообщения: 481
Зарегистрирован: 14 фев 2014, 18:28
  • Торрент
Автор: 7Max7 Хэш: ---
Добавлен: 23 фев 2022, 21:29 Приватный: Нет (DHT включён)
Статус: Проверен
Размер: 1.37 ГБ (1 466 935 296 байт)
Изменил:
---
Скачали: 932 (Раздающих: 0%)
Причина:
---
Здоровье: 100%
Сидеров: 13 Личеров: 2
Скорость раздачи: 0 байт/сек Скорость скачивания: 0 байт/сек
Последний сидер: 1 месяц 7 дней 22 часа 9 минут 44 секунды назад Последний личер: 1 месяц 7 дней 22 часа 9 минут 44 секунды назад
Для скачивания торрента необходимо зарегистрироваться или войти на трекер.

Форум Статистика

Сейчас этот форум просматривают: нет зарегистрированных пользователей и гости: 1

Настройки

Вернуться в Эротика / XXX

cron
Ресурс не предоставляет электронные версии произведений, а занимается лишь коллекционированием и каталогизацией ссылок, присылаемых и публикуемых на форуме нашими читателями. Если вы являетесь правообладателем какого-либо представленного материала и не желаете чтобы ссылка на него находилась в нашем каталоге, свяжитесь с нами и мы незамедлительно удалим её. Файлы для обмена на трекере предоставлены пользователями сайта, и администрация не несёт ответственности за их содержание. Просьба не заливать файлы, защищенные авторскими правами, а также файлы нелегального содержания!
tracker_cron