Модераторы: K15, Младшие модераторы, Модераторы

Запретное / Запретный плод / Forbidden (2001) DVDRip-AVC от ExKinoRay | A

Сообщение 7Max7 » 23 фев 2022, 21:29

#777

Информация о фильме
Название: Запретное / Запретный плод
Оригинальное название: Forbidden
Год выхода: 2001
Жанр: Эротика, драма

Режиссер: Роберт Кубилос

В ролях: Диллон Морган Сильвер, Рене Ри, Трейси Райан, Джейсон Шнут, Джениффер Куш, Инари Вэш, Майя Дивайн, Tiffany Mason, John D. Бек, Джеймс Corteen, Кевин Деманн, Энтони Фиоре, Фред Хаутала, Натан Эрнандес, Элдридж Хван

О фильме:
Джейсон женится на Лизе. Но перед свадьбой происходит традиционный "мальчишник". В кафе Джейсон знакомится с Никки, с которой проводит потрясающую ночь. Через несколько лет Джейсон, добропорядочный семьянин, снова встречает Никки. Теперь она - невеста его лучшего друга. Но воспоминания о той ночи уже завладели мыслями Джейсона и Никки...





Страна: США
Студия: Sapphire Films, Fat Face Productions
Продолжительность: 01:24:00
Перевод: Авторский (одноголосый закадровый) Антон Алексеев

Файл
Формат: MKV
Качество: DVDRip-AVC
Видео: MPEG-4 AVC, 704x540, 1990 Кбит/с
Аудио: Русский, английский (AC3, 2 ch, 192 Кбит/с)
Субтитры: Нет
x264 [info]: frame I:701 Avg QP:17.87 size: 43923
x264 [info]: frame P:30757 Avg QP:20.07 size: 19356
x264 [info]: frame B:89402 Avg QP:21.84 size: 7017

Общее
Уникальный идентификатор : 313881203310582098106117025517568275259 (0xEC235222CEA0B7D17E198CF0D2F8333B)
Полное имя : D:MOVIESZapretnyj.plod.2001.DVDRip-AVC.ExKinoRay.mkv
Формат : Matroska
Версия формата : Version 4
Размер файла : 1,39 Гбайт
Продолжительность : 1 ч. 24 м.
Общий поток : 2 375 Кбит/сек
Дата кодирования : UTC 2021-09-27 04:53:13
Программа кодирования : mkvmerge v48.0.0 ('Fortress Around Your Heart') 64-bit
Библиотека кодирования : libebml v1.4.0 + libmatroska v1.6.0

Видео
Идентификатор : 1
Формат : AVC
Формат/Информация : Advanced Video Codec
Профиль формата : High@L4.1
Настройки формата : CABAC / 14 Ref Frames
Параметр CABAC формата : Да
Параметр RefFrames формата : 14 кадров
Идентификатор кодека : V_MPEG4/ISO/AVC
Продолжительность : 1 ч. 24 м.
Битрейт : 1 990 Кбит/сек
Ширина : 704 пикселя
Высота : 540 пикселей
Соотношение сторон : 4:3
Режим частоты кадров : Постоянный
Частота кадров : 23,976 (24000/1001) кадра/сек
Цветовое пространство : YUV
Субдискретизация насыщенности : 4:2:0
Битовая глубина : 8 бит
Тип развёртки : Прогрессивная
Бит/(Пиксели*Кадры) : 0.218
Размер потока : 1,17 Гбайт (84%)
Библиотека кодирования : x264 core 161 r3053 c347e7a
Настройки программы : cabac=1 / ref=14 / deblock=1:-2:-2 / analyse=0x3:0x133 / me=umh / subme=10 / psy=1 / psy_rd=1.05:0.14 / mixed_ref=1 / me_range=32 / chroma_me=1 / trellis=2 / 8x8dct=1 / cqm=0 / deadzone=21,11 / fast_pskip=0 / chroma_qp_offset=-3 / threads=6 / lookahead_threads=1 / sliced_threads=0 / nr=0 / decimate=0 / interlaced=0 / bluray_compat=0 / constrained_intra=0 / bframes=11 / b_pyramid=2 / b_adapt=2 / b_bias=0 / direct=3 / weightb=1 / open_gop=0 / weightp=2 / keyint=240 / keyint_min=23 / scenecut=40 / intra_refresh=0 / rc=2pass / mbtree=0 / bitrate=1990 / ratetol=1.0 / qcomp=0.60 / qpmin=0 / qpmax=69 / qpstep=4 / cplxblur=20.0 / qblur=0.5 / ip_ratio=1.40 / pb_ratio=1.30 / aq=1:1.00
Язык : English
Default : Да
Forced : Нет

Аудио #1
Идентификатор : 2
Формат : AC-3
Формат/Информация : Audio Coding 3
Коммерческое название : Dolby Digital
Идентификатор кодека : A_AC3
Продолжительность : 1 ч. 24 м.
Вид битрейта : Постоянный
Битрейт : 192 Кбит/сек
Каналы : 2 канала
Channel layout : L R
Частота : 48,0 КГц
Частота кадров : 31,250 кадров/сек (1536 SPF)
Метод сжатия : С потерями
Размер потока : 115 Мбайт (8%)
Язык : Russian
Service kind : Complete Main
Default : Да
Forced : Нет

Аудио #2
Идентификатор : 3
Формат : AC-3
Формат/Информация : Audio Coding 3
Коммерческое название : Dolby Digital
Идентификатор кодека : A_AC3
Продолжительность : 1 ч. 24 м.
Вид битрейта : Постоянный
Битрейт : 192 Кбит/сек
Каналы : 2 канала
Channel layout : L R
Частота : 48,0 КГц
Частота кадров : 31,250 кадров/сек (1536 SPF)
Метод сжатия : С потерями
Размер потока : 115 Мбайт (8%)
Язык : English
Service kind : Complete Main
Default : Нет
Forced : Нет

Меню
00:00:00.000 : en:Chapter 01
00:05:26.567 : en:Chapter 02
00:11:30.067 : en:Chapter 03
00:16:13.035 : en:Chapter 04
00:22:38.570 : en:Chapter 05
00:33:26.738 : en:Chapter 06
00:42:43.539 : en:Chapter 07
00:45:50.672 : en:Chapter 08
00:52:04.907 : en:Chapter 09
01:02:42.708 : en:Chapter 10
01:11:18.376 : en:Chapter 11
01:21:40.244 : en:Chapter 12

7Max7
Аватара пользователя
 
Раздал: 491.08 ГБ
Скачал: 4.25 ГБ
Ратио: 115.495
Сообщения: 481
Зарегистрирован: 14 фев 2014, 18:28
  • Торрент
Автор: 7Max7 Хэш: ---
Добавлен: 23 фев 2022, 21:29 Приватный: Нет (DHT включён)
Статус: Проверен
Размер: 1.39 ГБ (1 496 616 988 байт)
Изменил:
---
Скачали: 1913 (Раздающих: 0%)
Причина:
---
Здоровье: 100%
Сидеров: 34 Личеров: 0
Скорость раздачи: 0 байт/сек Скорость скачивания: 0 байт/сек
Последний сидер: 1 месяц 6 дней 22 часа 50 минут 19 секунд назад Последний личер: Нет
Для скачивания торрента необходимо зарегистрироваться или войти на трекер.

Форум Статистика

Сейчас этот форум просматривают: нет зарегистрированных пользователей и гости: 2

Настройки

Вернуться в Эротика / XXX

cron
Ресурс не предоставляет электронные версии произведений, а занимается лишь коллекционированием и каталогизацией ссылок, присылаемых и публикуемых на форуме нашими читателями. Если вы являетесь правообладателем какого-либо представленного материала и не желаете чтобы ссылка на него находилась в нашем каталоге, свяжитесь с нами и мы незамедлительно удалим её. Файлы для обмена на трекере предоставлены пользователями сайта, и администрация не несёт ответственности за их содержание. Просьба не заливать файлы, защищенные авторскими правами, а также файлы нелегального содержания!