Модераторы: K15, Младшие модераторы, Модераторы

Южени / Eugenie / De Sade 70 (1970) HDRip от ExKinoRay | А

Сообщение Zina » 27 янв 2022, 23:23

#777Информация о фильме

Название: Южени
Оригинальное название: Eugenie / De Sade 70
Год выхода: 1970
Жанр: ужасы, драма, эротика
Режиссер: Хесус Франко
В ролях: Мария Ром, Мари Лильедаль, Джек Тейлор, Кристофер Ли, Пауль Мюллер, Мария Луиза Понте, Ута Далберг, Хесус Франко, Херберт Фукс

О фильме:
Невинная девушка Южени приглашена своей старшей подругой аристократкой Мариан провести уик-энд в ее резиденции на роскошном острове. Там девушка оказывается втянута в мистические события с садомазохистскими оргиями и убийствами...







Страна: Германия (ФРГ), Испания, Лихтенштейн
Студия: Hape-Film, Producciones Cinematograficas Balcazar, Video-Tel International Productions
Продолжительность: 01:26:58
Перевод: Авторский - Андрей Дольский

Файл
Кодек: XviD
Качество: HDRip
Видео: 640x272 (2.35:1), 23.976 fps, XviD build 73 ~1060 kbps avg, 0.25 bit/pixel
Звук: 48 kHz, MP3, 2 ch, ~128.00 kbps avg
Субтитры: Отсутствуют

General
Complete name : D:ТоррентРипыAVIЮжениЮжени..HDRip. by.ExKinoRay & Shkiper.avi
Format : AVI
Format/Info : Audio Video Interleave
File size : 745 MiB
Duration : 1 h 26 min
Overall bit rate : 1 197 kb/s
Writing application : VirtualDubMod 1.5.10.3 | http://www.virtualdub-fr.org || (build 2550/release)
Writing library : VirtualDubMod build 2550/release

Video
ID : 0
Format : MPEG-4 Visual
Format profile : Advanced Simple@L5
Format settings : BVOP1 / Custom Matrix
Format settings, BVOP : 1
Format settings, QPel : No
Format settings, GMC : No warppoints
Format settings, Matrix : Custom
Codec ID : XVID
Codec ID/Hint : XviD
Duration : 1 h 26 min
Bit rate : 1 060 kb/s
Width : 640 pixels
Height : 272 pixels
Display aspect ratio : 2.35:1
Frame rate : 23.976 (24000/1001) FPS
Color space : YUV
Chroma subsampling : 4:2:0
Bit depth : 8 bits
Scan type : Progressive
Compression mode : Lossy
Bits/(Pixel*Frame) : 0.254
Stream size : 659 MiB (89%)
Writing library : XviD 73

Audio
ID : 1
Format : MPEG Audio
Format version : Version 1
Format profile : Layer 3
Codec ID : 55
Codec ID/Hint : MP3
Duration : 1 h 26 min
Bit rate mode : Constant
Bit rate : 128 kb/s
Channel(s) : 2 channels
Sampling rate : 48.0 kHz
Frame rate : 41.667 FPS (1152 SPF)
Compression mode : Lossy
Stream size : 79.6 MiB (11%)
Alignment : Aligned on interleaves
Interleave, duration : 42 ms (1.00 video frame)
Interleave, preload duratio : 504 ms
Writing library : LAME3.99r
Encoding settings : -m s -V 4 -q 2 -lowpass 17 -b 128


Рип изготовил:
Zina
Аватара пользователя
 
Раздал: 0 байт
Скачал: 0 байт
Ратио: Inf.
Сообщения: 408
Зарегистрирован: 01 июл 2014, 16:52
  • Торрент
Автор: Zina Хэш: ---
Добавлен: 27 янв 2022, 23:23 Приватный: Нет (DHT включён)
Статус: Проверен
Размер: 744.64 МБ (780 810 240 байт)
Изменил:
---
Скачали: 1 (Раздающих: 0%)
Причина:
---
Здоровье: 0%
Сидеров: 0 Личеров: 0
Скорость раздачи: 0 байт/сек Скорость скачивания: 0 байт/сек
Последний сидер: Нет Последний личер: Нет
Для скачивания торрента необходимо зарегистрироваться или войти на трекер.

Форум Статистика

Сейчас этот форум просматривают: нет зарегистрированных пользователей и гости: 1

Настройки

Вернуться в Эротика / XXX

cron
Ресурс не предоставляет электронные версии произведений, а занимается лишь коллекционированием и каталогизацией ссылок, присылаемых и публикуемых на форуме нашими читателями. Если вы являетесь правообладателем какого-либо представленного материала и не желаете чтобы ссылка на него находилась в нашем каталоге, свяжитесь с нами и мы незамедлительно удалим её. Файлы для обмена на трекере предоставлены пользователями сайта, и администрация не несёт ответственности за их содержание. Просьба не заливать файлы, защищенные авторскими правами, а также файлы нелегального содержания!
tracker_cron