Модераторы: K15, Младшие модераторы, Модераторы

Южени / Евгения / De Sade 70 / Eugenie (1970) BDRemux 1080p | A, L1

Сообщение Zina » 27 янв 2022, 23:22

#777

Информация о фильме
Название: Южени / Евгения
Оригинальное название: De Sade 70 / Eugenie
Год выпуска: 1978
Жанр: Ужасы, драма, эротика
Режиссер: Хесус Франко
В ролях: Мария Ром, Мари Лильедаль, Джек Тейлор, Кристофер Ли, Пауль Мюллер, Мария Луиза Понте, Энни Каблан, Ута Далберг, Хесус Франко, Херберт Фукс

О фильме:
Невинная девушка Южени приглашена своей старшей подругой аристократкой Мариан провести уик-энд в ее резиденции на роскошном острове. Там девушка оказывается втянута в мистические события с садомазохистскими оргиями и убийствами





Страна: Германия (ФРГ), Испания, Лихтенштейн
Студия: Etablissement Sargon, Hape-Film Company GmbH, Producciones Cinematográficas Balcazar
Продолжительность: 01:26:58
Перевод: Авторский одноголосый - Андрей Дольский, Антон Алексеев, Любительский одноголосый - Н. Севастьянов

Файл
Кодек: MPEG-4 AVC
Качество: BDRemux 1080p
Видео: 19993 Кбит/с, 1920x1080
Звук: Русский, английский (DTS, 2 ch, 1509 Кбит/с)
Субтитры: Английские, французские, испанские

General
Unique ID : 211237007912310681071550351588767203028 (0x9EEAC4947235E720393211A080667ED4)
Complete name : F:_TorrentporvaliparusDe.Sade.70.1970-BDRemux.1080p.mkv
Format : Matroska
Format version : Version 4 / Version 2
File size : 14.3 GiB
Duration : 1 h 26 min
Overall bit rate mode : Variable
Overall bit rate : 23.5 Mb/s
Movie name : De.Sade.70.1970.BDRemux.1080p-porvaliparus
Encoded date : UTC 2021-09-16 13:01:42
Writing application : mkvmerge v61.0.0 ('So') 64-bit
Writing library : libebml v1.4.2 + libmatroska v1.6.4
Cover : Yes
Attachments : Cover.jpg
Video
ID : 1
Format : AVC
Format/Info : Advanced Video Codec
Format profile : High@L4.1
Format settings, CABAC : Yes
Format settings, ReFrames : 4 frames
Codec ID : V_MPEG4/ISO/AVC
Duration : 1 h 26 min
Bit rate mode : Variable
Bit rate : 19.9 Mb/s
Maximum bit rate : 39.0 Mb/s
Width : 1 920 pixels
Height : 1 080 pixels
Display aspect ratio : 16:9
Frame rate mode : Constant
Frame rate : 23.976 (24000/1001) FPS
Color space : YUV
Chroma subsampling : 4:2:0
Bit depth : 8 bits
Scan type : Progressive
Bits/(Pixel*Frame) : 0.401
Stream size : 12.1 GiB (85%)
Title : De.Sade.70.1970.BDRemux.1080p
Default : Yes
Forced : No
Audio #1
ID : 2
Format : DTS
Format/Info : Digital Theater Systems
Format profile : MA / Core
Mode : 16
Format settings, Endianness : Big
Codec ID : A_DTS
Duration : 1 h 26 min
Bit rate mode : Variable / Constant
Bit rate : 1 593 kb/s / 1 509 kb/s
Channel(s) : 2 channels
Channel positions : Front: L R
Sampling rate : 48.0 kHz
Frame rate : 93.750 FPS (512 spf)
Bit depth : 16 bits
Compression mode : Lossless / Lossy
Stream size : 991 MiB (7%)
Title : AVO [Андрей Дольский]
Language : Russian
Default : Yes
Forced : No
Audio #2
ID : 3
Format : AC-3
Format/Info : Audio Coding 3
Format settings, Endianness : Big
Codec ID : A_AC3
Duration : 1 h 26 min
Bit rate mode : Constant
Bit rate : 192 kb/s
Channel(s) : 2 channels
Channel positions : Front: L R
Sampling rate : 48.0 kHz
Frame rate : 31.250 FPS (1536 spf)
Bit depth : 16 bits
Compression mode : Lossy
Stream size : 119 MiB (1%)
Title : VO [Н. Севастьянов]
Language : Russian
Service kind : Complete Main
Default : No
Forced : No
Audio #3
ID : 4
Format : AC-3
Format/Info : Audio Coding 3
Format settings, Endianness : Big
Codec ID : A_AC3
Duration : 1 h 26 min
Bit rate mode : Constant
Bit rate : 192 kb/s
Channel(s) : 2 channels
Channel positions : Front: L R
Sampling rate : 48.0 kHz
Frame rate : 31.250 FPS (1536 spf)
Bit depth : 16 bits
Compression mode : Lossy
Stream size : 119 MiB (1%)
Title : AVO [Антон Алексеев]
Language : Russian
Service kind : Complete Main
Default : No
Forced : No
Audio #4
ID : 5
Format : DTS
Format/Info : Digital Theater Systems
Format profile : MA / Core
Mode : 16
Format settings, Endianness : Big
Codec ID : A_DTS
Duration : 1 h 26 min
Bit rate mode : Variable / Constant
Bit rate : 1 536 kb/s / 1 509 kb/s
Channel(s) : 2 channels
Channel positions : Front: L R
Sampling rate : 48.0 kHz
Frame rate : 93.750 FPS (512 spf)
Bit depth : 16 bits
Compression mode : Lossless / Lossy
Stream size : 970 MiB (7%)
Language : English
Default : No
Forced : No
Text #1
ID : 6
Format : UTF-8
Codec ID : S_TEXT/UTF8
Codec ID/Info : UTF-8 Plain Text
Duration : 1 h 24 min
Bit rate : 28 b/s
Count of elements : 672
Stream size : 17.8 KiB (0%)
Language : English
Default : No
Forced : No
Text #2
ID : 7
Format : PGS
Codec ID : S_HDMV/PGS
Codec ID/Info : Picture based subtitle format used on BDs/HD-DVDs
Duration : 1 h 24 min
Bit rate : 23.6 kb/s
Count of elements : 1344
Stream size : 14.3 MiB (0%)
Language : English
Default : No
Forced : No
Text #3
ID : 8
Format : PGS
Codec ID : S_HDMV/PGS
Codec ID/Info : Picture based subtitle format used on BDs/HD-DVDs
Duration : 1 h 24 min
Bit rate : 23.0 kb/s
Count of elements : 1200
Stream size : 13.9 MiB (0%)
Language : French
Default : No
Forced : No
Text #4
ID : 9
Format : PGS
Codec ID : S_HDMV/PGS
Codec ID/Info : Picture based subtitle format used on BDs/HD-DVDs
Duration : 1 h 24 min
Bit rate : 21.2 kb/s
Count of elements : 1130
Stream size : 12.8 MiB (0%)
Language : Spanish
Default : No
Forced : No
Menu
00:00:00.000 : Глава 01
00:01:00.435 : Глава 02
00:04:47.913 : Глава 03
00:08:16.287 : Глава 04
00:11:06.416 : Глава 05
00:15:52.034 : Глава 06
00:21:51.143 : Глава 07
00:26:20.704 : Глава 08
00:30:37.252 : Глава 09
00:36:14.464 : Глава 10
00:39:56.769 : Глава 11
00:45:03.868 : Глава 12
00:48:35.496 : Глава 13
00:51:33.090 : Глава 14
00:53:49.977 : Глава 15
00:58:29.881 : Глава 16
01:01:47.662 : Глава 17
01:05:33.680 : Глава 18
01:08:13.464 : Глава 19
01:11:12.643 : Глава 20
01:14:30.257 : Глава 21
01:17:30.980 : Глава 22
01:22:12.970 : Глава 23
01:25:56.526 : Глава 24


Релиз от: porvaliparus Спонсоры перевода А. Дольского vitolinform, porvaliparus, 18+
Аудио 1: Русский (DTS, 2 ch, 1509 Кбит/с) - А. Дольский
Аудио 2: Русский (AC3, 2 ch, 192 Кбит/с) - Н. Севастьянов
Аудио 3: Русский (AC3, 2 ch, 192 Кбит/с) - А. Алексеев
Аудио 4: Английский (DTS, 2 ch, 1509 Кбит/с)


Zina
Аватара пользователя
 
Раздал: 0 байт
Скачал: 0 байт
Ратио: Inf.
Сообщения: 408
Зарегистрирован: 01 июл 2014, 16:52
  • Торрент
Автор: Zina Хэш: ---
Добавлен: 27 янв 2022, 23:22 Приватный: Нет (DHT включён)
Статус: Проверен
Размер: 14.29 ГБ (15 343 372 241 байт)
Изменил:
---
Скачали: 129 (Раздающих: 0%)
Причина:
---
Здоровье: 100%
Сидеров: 5 Личеров: 0
Скорость раздачи: 0 байт/сек Скорость скачивания: 0 байт/сек
Последний сидер: 1 месяц 6 дней 23 часа 7 минут 1 секунду назад Последний личер: Нет
Для скачивания торрента необходимо зарегистрироваться или войти на трекер.

Форум Статистика

Сейчас этот форум просматривают: нет зарегистрированных пользователей и гости: 2

Настройки

Вернуться в Эротика / XXX

cron
Ресурс не предоставляет электронные версии произведений, а занимается лишь коллекционированием и каталогизацией ссылок, присылаемых и публикуемых на форуме нашими читателями. Если вы являетесь правообладателем какого-либо представленного материала и не желаете чтобы ссылка на него находилась в нашем каталоге, свяжитесь с нами и мы незамедлительно удалим её. Файлы для обмена на трекере предоставлены пользователями сайта, и администрация не несёт ответственности за их содержание. Просьба не заливать файлы, защищенные авторскими правами, а также файлы нелегального содержания!