Модераторы: K15, Младшие модераторы, Модераторы

Южени / Eugenie / De Sade 70 (1970) BDRip-AVC от ExKinoRay | А

Сообщение Zina » 27 янв 2022, 23:22

#777

Информация о фильме
Название: Южени
Оригинальное название: De Sade 70 / Eugenie
Год выхода: 1970
Жанр: Драма, эротика
Режиссер: Хесус Франко / Jesus Franco
В ролях: Мария Ром, Мари Лильедаль, Джек Тейлор, Кристофер Ли, Пауль Мюллер, Мария Луиза Понте, Ута Далберг, Хесус Франко, Херберт Фукс

О фильме:
Южени была неопытной и совсем невинной девушкой, когда ее старшая подруга Мариан пригласила к себе на остров. Мариан была из высших кругов общества и ее семья владела огромным особняком на красивейшем острове. Вместе со своими друзьями, девушка там часто проводила выходные. А на этот раз она решила пригласить свежее лицо, молодую и невинную Южени. Девушка была в шоке от происходящего, ведь ей пришлось не только наблюдать за остальными, но и самой быть участницей всех тех оргий и преступлений, которые на острове совершали дети из аристократических семей ...





Страна: Германия (ФРГ), Испания, Лихтенштейн
Студия: Producciones Cinematográficas Balcazar, Video-Tel International Productions
Продолжительность: 01:26:58
Перевод: Авторский (Андрей Дольский)

Файл
Формат: MKV
Качество: BDRip-AVC
Видео: MPEG-4 AVC, 1024x436, 1850 Кбит/с
Аудио: Русский, английский (AC3, 2 ch, 192 Кбит/с)
Субтитры: Английские

x264 [info]: frame I:652 Avg QP:15.54 size: 68153
x264 [info]: frame P:25126 Avg QP:18.56 size: 22985
x264 [info]: frame B:99333 Avg QP:20.02 size: 5888

Общее
Уникальный идентификатор : 40399862794523278926334302825239824143 (0x1E64BB055BB809CDD38C8196324C470F)
Полное имя : D:MOVIESDeSade70.1970.BDRip-AVC.ExKinoRay.mkv
Формат : Matroska
Версия формата : Version 4
Размер файла : 1,36 Гбайт
Продолжительность : 1 ч. 26 м.
Общий поток : 2 236 Кбит/сек
Дата кодирования : UTC 2021-09-17 04:19:33
Программа кодирования : mkvmerge v48.0.0 ('Fortress Around Your Heart') 64-bit
Библиотека кодирования : libebml v1.4.0 + libmatroska v1.6.0

Видео
Идентификатор : 1
Формат : AVC
Формат/Информация : Advanced Video Codec
Профиль формата : High@L4.1
Настройки формата : CABAC / 13 Ref Frames
Параметр CABAC формата : Да
Параметр RefFrames формата : 13 кадров
Идентификатор кодека : V_MPEG4/ISO/AVC
Продолжительность : 1 ч. 26 м.
Битрейт : 1 850 Кбит/сек
Ширина : 1 024 пикселя
Высота : 436 пикселей
Соотношение сторон : 2,35:1
Режим частоты кадров : Постоянный
Частота кадров : 23,976 (24000/1001) кадра/сек
Цветовое пространство : YUV
Субдискретизация насыщенности : 4:2:0
Битовая глубина : 8 бит
Тип развёртки : Прогрессивная
Бит/(Пиксели*Кадры) : 0.173
Размер потока : 1,12 Гбайт (83%)
Библиотека кодирования : x264 core 161 r3053 c347e7a
Настройки программы : cabac=1 / ref=13 / deblock=1:-2:-2 / analyse=0x3:0x133 / me=umh / subme=10 / psy=1 / psy_rd=1.05:0.11 / mixed_ref=1 / me_range=32 / chroma_me=1 / trellis=2 / 8x8dct=1 / cqm=0 / deadzone=21,11 / fast_pskip=0 / chroma_qp_offset=-3 / threads=6 / lookahead_threads=1 / sliced_threads=0 / nr=0 / decimate=0 / interlaced=0 / bluray_compat=0 / constrained_intra=0 / bframes=11 / b_pyramid=2 / b_adapt=2 / b_bias=0 / direct=3 / weightb=1 / open_gop=0 / weightp=2 / keyint=240 / keyint_min=23 / scenecut=40 / intra_refresh=0 / rc=2pass / mbtree=0 / bitrate=1850 / ratetol=1.0 / qcomp=0.60 / qpmin=0 / qpmax=69 / qpstep=4 / cplxblur=20.0 / qblur=0.5 / ip_ratio=1.40 / pb_ratio=1.30 / aq=1:1.00
Язык : English
Default : Да
Forced : Нет
Цветовой диапазон : Limited
Основные цвета : BT.709
Характеристики трансфера : BT.709
Коэффициенты матрицы : BT.709

Аудио #1
Идентификатор : 2
Формат : AC-3
Формат/Информация : Audio Coding 3
Коммерческое название : Dolby Digital
Идентификатор кодека : A_AC3
Продолжительность : 1 ч. 26 м.
Вид битрейта : Постоянный
Битрейт : 192 Кбит/сек
Каналы : 2 канала
Channel layout : L R
Частота : 48,0 КГц
Частота кадров : 31,250 кадров/сек (1536 SPF)
Метод сжатия : С потерями
Размер потока : 119 Мбайт (9%)
Заголовок : Андрей Дольский
Язык : Russian
Service kind : Complete Main
Default : Да
Forced : Нет

Аудио #2
Идентификатор : 3
Формат : AC-3
Формат/Информация : Audio Coding 3
Коммерческое название : Dolby Digital
Идентификатор кодека : A_AC3
Продолжительность : 1 ч. 26 м.
Вид битрейта : Постоянный
Битрейт : 192 Кбит/сек
Каналы : 2 канала
Channel layout : L R
Частота : 48,0 КГц
Частота кадров : 31,250 кадров/сек (1536 SPF)
Метод сжатия : С потерями
Размер потока : 119 Мбайт (9%)
Язык : English
Service kind : Complete Main
Default : Нет
Forced : Нет

Текст
Идентификатор : 4
Формат : UTF-8
Идентификатор кодека : S_TEXT/UTF8
Идентификатор кодека/Информация : UTF-8 Plain Text
Продолжительность : 1 ч. 24 м.
Битрейт : 28 бит/сек
Count of elements : 672
Размер потока : 17,8 Кбайт (0%)
Язык : English
Default : Нет
Forced : Нет

Меню
00:00:00.000 : en:Глава 01
00:01:00.435 : en:Глава 02
00:04:47.913 : en:Глава 03
00:08:16.287 : en:Глава 04
00:11:06.416 : en:Глава 05
00:15:52.034 : en:Глава 06
00:21:51.143 : en:Глава 07
00:26:20.704 : en:Глава 08
00:30:37.252 : en:Глава 09
00:36:14.464 : en:Глава 10
00:39:56.769 : en:Глава 11
00:45:03.868 : en:Глава 12
00:48:35.496 : en:Глава 13
00:51:33.090 : en:Глава 14
00:53:49.977 : en:Глава 15
00:58:29.881 : en:Глава 16
01:01:47.662 : en:Глава 17
01:05:33.680 : en:Глава 18
01:08:13.464 : en:Глава 19
01:11:12.643 : en:Глава 20
01:14:30.257 : en:Глава 21
01:17:30.980 : en:Глава 22
01:22:12.970 : en:Глава 23
01:25:56.526 : en:Глава 24



Zina
Аватара пользователя
 
Раздал: 0 байт
Скачал: 0 байт
Ратио: Inf.
Сообщения: 408
Зарегистрирован: 01 июл 2014, 16:52
  • Торрент
Автор: Zina Хэш: ---
Добавлен: 27 янв 2022, 23:22 Приватный: Нет (DHT включён)
Статус: Проверен
Размер: 1.36 ГБ (1 458 628 528 байт)
Изменил:
---
Скачали: 347 (Раздающих: 0%)
Причина:
---
Здоровье: 100%
Сидеров: 6 Личеров: 1
Скорость раздачи: 0 байт/сек Скорость скачивания: 0 байт/сек
Последний сидер: 1 месяц 7 дней 22 часа 40 минут 29 секунд назад Последний личер: 1 месяц 7 дней 22 часа 40 минут 29 секунд назад
Для скачивания торрента необходимо зарегистрироваться или войти на трекер.

Форум Статистика

Сейчас этот форум просматривают: нет зарегистрированных пользователей и гости: 2

Настройки

Вернуться в Эротика / XXX

cron
Ресурс не предоставляет электронные версии произведений, а занимается лишь коллекционированием и каталогизацией ссылок, присылаемых и публикуемых на форуме нашими читателями. Если вы являетесь правообладателем какого-либо представленного материала и не желаете чтобы ссылка на него находилась в нашем каталоге, свяжитесь с нами и мы незамедлительно удалим её. Файлы для обмена на трекере предоставлены пользователями сайта, и администрация не несёт ответственности за их содержание. Просьба не заливать файлы, защищенные авторскими правами, а также файлы нелегального содержания!
tracker_cron