Модераторы: K15, Младшие модераторы, Модераторы

Путешествие по Европе. Выпуск №37: Вологда (2013) DVDRip

Сообщение ViKa » 28 ноя 2015, 16:15

  • Постеры
Вологда. Красоты Русского Севера.



Год выпуска: 2013
Страна: Германия, Польша, Россия
Студия: Komplett-Media GmbH
Жанр: [url=browse.php?tag=документальный]документальный[/url]

Продолжительность: 01:14:31

Перевод: Профессиональный (дикторский закадровый)
Субтитры: нет
Оригинальная аудиодорожка: нет

Описание:
На территории Вологодчины сохранилось уникальное число объектов историко-культурного наследия - около трех с половиной тысяч. О древней истории Вологды, одного из старейших русских городов, сыгравшего ведущую роль встановлении Русского Севера, ровесника Москвы, свидетельствует более 220 памятников архитектуры, в том числе 50 храмов. Своеобразные визитные карточки Вологды - волгодские кружева и вологодское масло. В 130 км от Вологды расположился провинциальный городок Кириллов, который приобрел известность благодаря древнему Кирилло-Белозерскому монастырю, самому большому в России, и хорошо сохранившемуся в его окрестностях Ферапонтову монастырю с фресками Дионисия, зенесенному в Список всемирного наследия ЮНЕСКО. Особая роль в сохранении природы края принадлежит национальному парку "Русский Север", раскинувшемуся на площади более 160 тысяч гектаров на территории Кирилловского района...





Исходник: DVD5 R5
Тип релиза: DVDRip
Контейнер: AVI

Видео: 688x512 (4:3), 25 fps, XviD ~ 1260 kbps avg, 0.143 bit/pixel
Аудио: 48 kHz, MP3 2.0, 128.00 kbps

Раздача от:

Общее
Полное имя : Vologda.Krasoty.Russkogo.Severa.2013.DVDRip-745_[Youtracker]_by_AVP Studio.avi
Формат : AVI
Формат/Информация : Audio Video Interleave
Размер файла : 745 Мбайт
Продолжительность : 1 ч. 14 м.
Общий поток : 1398 Кбит/сек
Программа кодирования : VirtualDubModRus 1.5.10.2 (build 2542/release)
Библиотека кодирования : VirtualDubMod build 2542/release

Видео
Идентификатор : 0
Формат : MPEG-4 Visual
Профиль формата : Advanced Simple@L5
Параметр BVOP формата : 1
Параметр QPel формата : Нет
Параметр GMC формата : Без точки перехода
Параметр матрицы формата : Выборочная
Идентификатор кодека : XVID
Идентификатор кодека/Подсказка : XviD
Продолжительность : 1 ч. 14 м.
Битрейт : 1260 Кбит/сек
Ширина : 688 пикселей
Высота : 512 пикселей
Соотношение сторон : 4:3
Частота кадров : 25,000 кадров/сек
Цветовое пространство : YUV
Субдискретизация насыщенности : 4:2:0
Битовая глубина : 8 бит
Тип развёртки : Прогрессивная
Метод сжатия : С потерями
Бит/(Пиксели*Кадры) : 0.143
Размер потока : 672 Мбайт (90%)
Библиотека кодирования : XviD 73

Аудио
Идентификатор : 1
Формат : MPEG Audio
Версия формата : Version 1
Профиль формата : Layer 3
Идентификатор кодека : 55
Идентификатор кодека/Подсказка : MP3
Продолжительность : 1 ч. 14 м.
Вид битрейта : Постоянный
Битрейт : 128 Кбит/сек
Каналы : 2 канала
Частота : 48,0 КГц
Метод сжатия : С потерями
Размер потока : 68,2 Мбайт (9%)
Выравнивание : Соединение по промежуткам
Продолжительность промежутка : 40 мс. (1,00 видеокадр)
Время предзагрузки промежутка : 504 мс.
Библиотека кодирования : LAME3.99r
Настройки программы : -m s -V 4 -q 2 -lowpass 17 -b 128





ViKa
 
Раздал: 4.71 ТБ
Скачал: 139.97 ГБ
Ратио: 34.434
Сообщения: 25821
Зарегистрирован: 14 мар 2009, 20:33
  • Торрент
Автор: ViKa Хэш: ---
Добавлен: 28 ноя 2015, 16:15 Приватный: Нет (DHT включён)
Статус: Проверен
Размер: 745.01 МБ (781 201 408 байт)
Изменил:
---
Скачали: 0 (Раздающих: 0%)
Причина:
---
Здоровье: 0%
Сидеров: 0 Личеров: 0
Скорость раздачи: 0 байт/сек Скорость скачивания: 0 байт/сек
Последний сидер: Нет Последний личер: Нет
Для скачивания торрента необходимо зарегистрироваться или войти на трекер.

Форум Статистика

Сейчас этот форум просматривают: нет зарегистрированных пользователей и гости: 7

Настройки

Вернуться в TV / Документалки

cron
Ресурс не предоставляет электронные версии произведений, а занимается лишь коллекционированием и каталогизацией ссылок, присылаемых и публикуемых на форуме нашими читателями. Если вы являетесь правообладателем какого-либо представленного материала и не желаете чтобы ссылка на него находилась в нашем каталоге, свяжитесь с нами и мы незамедлительно удалим её. Файлы для обмена на трекере предоставлены пользователями сайта, и администрация не несёт ответственности за их содержание. Просьба не заливать файлы, защищенные авторскими правами, а также файлы нелегального содержания!
tracker_cron