Модераторы: K15, Младшие модераторы, Модераторы

Nat Geo Wild: Кровавая река / Africa's Blood River (2013) HDTVRip-AVC

Сообщение ViKa » 07 окт 2015, 20:27

  • Постеры
  • Скриншоты
Кровавая река
Africa's Blood River





Год выпуска: 2013
Страна: США
Жанр: [url=browse.php?tag=Документальный]Документальный[/url]

Продолжительность: 00:43:59
Перевод: Профессиональный (дублированный) | Эрик Платонов / АРК·ТВ
Русские субтитры: нет


Режиссер: Ричард Слейтер-Джонс / Richard Slater-Jones

Описание: Перед матерью-зеброй и её жеребёнком стоит сложнейшая задача: им предстоит пройти сквозь воды реки Мара, кишащей крокодилами.


Автор рипа: Leo.pard
Исходник: HDTV 1080i Спасибо LeXa 84!


Kачество: HDTVRip-AVC
Формат: MKV
Видео: x264, 992x560 (16:9), 2032 Kbps, 25 fps
Аудио: MP2, 192 Kbps, 48 KHz, 2 channels

Сэмпл: http://multi-up.com/904328


General
Unique ID : 178346016221608657143770494514300880573 (0x862C317CC94675959F2C4C1333C686BD)
Complete name : D:Krovavaja.reka.2013.HDTVRip-AVC.mkv
Format : Matroska
Format version : Version 2
File size : 700 MiB
Duration : 43mn 59s
Overall bit rate : 2 225 Kbps
Encoded date : UTC 2013-09-08 20:42:51
Writing application : mkvmerge v6.1.0 ('Old Devil') built on Mar 4 2013 09:10:42
Writing library : libebml v1.3.0 + libmatroska v1.4.0

Video
ID : 1
Format : AVC
Format/Info : Advanced Video Codec
Format profile : High@L4.1
Format settings, CABAC : Yes
Format settings, ReFrames : 11 frames
Codec ID : V_MPEG4/ISO/AVC
Duration : 43mn 59s
Bit rate : 2 032 Kbps
Width : 992 pixels
Height : 560 pixels
Display aspect ratio : 16:9
Frame rate : 25.000 fps
Color space : YUV
Chroma subsampling : 4:2:0
Bit depth : 8 bits
Scan type : Progressive
Bits/(Pixel*Frame) : 0.146
Stream size : 626 MiB (89%)
Writing library : x264 core 130 r2273 b3065e6
Encoding settings : cabac=1 / ref=11 / deblock=1:-2:-1 / analyse=0x3:0x113 / me=umh / subme=9 / psy=1 / psy_rd=1.00:0.20 / mixed_ref=1 / me_range=32 / chroma_me=1 / trellis=1 / 8x8dct=1 / cqm=0 / deadzone=21,11 / fast_pskip=0 / chroma_qp_offset=-3 / threads=3 / lookahead_threads=1 / sliced_threads=0 / nr=0 / decimate=0 / interlaced=0 / bluray_compat=0 / constrained_intra=0 / bframes=8 / b_pyramid=2 / b_adapt=2 / b_bias=0 / direct=3 / weightb=1 / open_gop=0 / weightp=2 / keyint=250 / keyint_min=25 / scenecut=40 / intra_refresh=0 / rc_lookahead=60 / rc=2pass / mbtree=1 / bitrate=2032 / ratetol=1.0 / qcomp=0.60 / qpmin=0 / qpmax=69 / qpstep=4 / cplxblur=20.0 / qblur=0.5 / ip_ratio=1.40 / aq=1:1.00

Audio
ID : 2
Format : MPEG Audio
Format version : Version 1
Format profile : Layer 2
Codec ID : A_MPEG/L2
Codec ID/Hint : MP2
Duration : 43mn 59s
Bit rate mode : Constant
Bit rate : 192 Kbps
Channel(s) : 2 channels
Sampling rate : 48.0 KHz
Compression mode : Lossy
Stream size : 60.4 MiB (9%)
Language : English









ViKa
 
Раздал: 4.71 ТБ
Скачал: 139.97 ГБ
Ратио: 34.434
Сообщения: 25821
Зарегистрирован: 14 мар 2009, 20:33
  • Торрент
Автор: ViKa Хэш: ---
Добавлен: 07 окт 2015, 20:27 Приватный: Нет (DHT включён)
Статус: Проверен
Размер: 700.27 МБ (734 281 990 байт)
Изменил:
---
Скачали: 0 (Раздающих: 0%)
Причина:
---
Здоровье: 0%
Сидеров: 0 Личеров: 0
Скорость раздачи: 0 байт/сек Скорость скачивания: 0 байт/сек
Последний сидер: Нет Последний личер: Нет
Для скачивания торрента необходимо зарегистрироваться или войти на трекер.

Форум Статистика

Сейчас этот форум просматривают: нет зарегистрированных пользователей и гости: 5

Настройки

Вернуться в TV / Документалки

cron
Ресурс не предоставляет электронные версии произведений, а занимается лишь коллекционированием и каталогизацией ссылок, присылаемых и публикуемых на форуме нашими читателями. Если вы являетесь правообладателем какого-либо представленного материала и не желаете чтобы ссылка на него находилась в нашем каталоге, свяжитесь с нами и мы незамедлительно удалим её. Файлы для обмена на трекере предоставлены пользователями сайта, и администрация не несёт ответственности за их содержание. Просьба не заливать файлы, защищенные авторскими правами, а также файлы нелегального содержания!
tracker_cron