Модераторы: K15, Младшие модераторы, Модераторы

Египет 3D / Egypt 3D (2013) BDRip 1080p | halfOU

Сообщение ViKa » 07 окт 2015, 19:56

  • Постеры
Египет 3D
gypten 3D
Egypt 3D


Год выпуска: 2013
Страна: Германия (Los Banditos Films)
Жанр: [url=browse.php?tag=Документальный]Документальный[/url]

Продолжительность: 01:01:33

Перевод: Профессиональный одноголосый закадровый

Режиссеры: Timo Joh. Mayer, Benjamin Eicher

Описание: Цивилизация Древнего Египта насчитывает более 3000 лет. Дошедшие до наших дней уникальные памятники этой удивительной культуры полны тайн и загадок. Величественные пирамиды, обелиски, храмовые комплексы, украшенные сфинксами, барельефами и настенными росписями потрясают воображение.
Гробницы фараонов, мумии, и другие исторические артефакты позволят ощутить дыхание времени в уникальном 3D путешествии. Откройте для себя красоту и мощь древнего государства, раскинувшегося на бескрайних просторах золотой пустыни.



Премьера: 15 марта 2013
Релиз на Blu-Ray (DVD): 14 августа 2013 (12 сентября 2013)







Качество: BDRip (by Ash61)
Контейнер: MKV
Формат 3D: Half OverUnder / Вертикальная анаморфная стереопара
Порядок ракурсов: левый ракурс первый
Видео кодек: x264
Аудио кодек: AC3



Видео: AVC / 23,976 fps / 1920х1080p / 10.6 Mbps

Аудио:
#1 - Русский / AC3 / 48 KHz / 5.1 ch / 640 Kbps (VO - BD 3D Rus)
#2 - Английский / AC3 / 48 KHz / 5.1 ch / 640 Kbps

Субтитры: Отсутствуют

General
Unique ID : 203251762343442384007067948586160845768 (0x98E8DD93AE23132EBE9C423BE2D773C8)
Complete name : E:DownloadsEgypt(3D-halfOU)2012(Ash61).mkv
Format : Matroska
Format version : Version 2
File size : 5.14 GiB
Duration : 1h 1mn
Overall bit rate : 11.9 Mbps
Movie name : Египет / Egypt (3D) 2012
Encoded date : UTC 2013-08-29 19:45:05
Writing application : mkvmerge v5.8.0 ('No Sleep / Pillow') built on Sep 2 2012 15:37:04
Writing library : libebml v1.2.3 + libmatroska v1.3.0

Video
ID : 1
Format : AVC
Format/Info : Advanced Video Codec
Format profile : High@L4.1
Format settings, CABAC : Yes
Format settings, ReFrames : 4 frames
Codec ID : V_MPEG4/ISO/AVC
Bit rate : 10.6 Mbps
Width : 1 920 pixels
Height : 1 080 pixels
Display aspect ratio : 16:9
Frame rate mode : Variable
Original frame rate : 23.976 fps
Color space : YUV
Chroma subsampling : 4:2:0
Bit depth : 8 bits
Scan type : Progressive
Title : BDRip by Ash61
Writing library : x264 core 129 r2245 bc13772
Encoding settings : cabac=1 / ref=4 / deblock=1:-3:-3 / analyse=0x3:0x113 / me=umh / subme=9 / psy=1 / psy_rd=1.00:0.15 / mixed_ref=1 / me_range=32 / chroma_me=1 / trellis=2 / 8x8dct=1 / cqm=0 / deadzone=21,11 / fast_pskip=1 / chroma_qp_offset=-3 / threads=12 / lookahead_threads=2 / sliced_threads=0 / nr=0 / decimate=1 / interlaced=0 / bluray_compat=0 / constrained_intra=0 / bframes=8 / b_pyramid=2 / b_adapt=2 / b_bias=0 / direct=3 / weightb=1 / open_gop=0 / weightp=2 / keyint=250 / keyint_min=23 / scenecut=40 / intra_refresh=0 / rc_lookahead=60 / rc=crf / mbtree=1 / crf=18.0 / qcomp=0.70 / qpmin=0 / qpmax=69 / qpstep=4 / vbv_maxrate=40000 / vbv_bufsize=30000 / crf_max=0.0 / nal_hrd=none / frame-packing=4 / ip_ratio=1.40 / aq=1:0.70
Language : German
Default : Yes
Forced : No

Audio #1
ID : 2
Format : AC-3
Format/Info : Audio Coding 3
Mode extension : CM (complete main)
Format settings, Endianness : Big
Codec ID : A_AC3
Duration : 1h 1mn
Bit rate mode : Constant
Bit rate : 640 Kbps
Channel(s) : 6 channels
Channel positions : Front: L C R, Side: L R, LFE
Sampling rate : 48.0 KHz
Bit depth : 16 bits
Compression mode : Lossy
Stream size : 282 MiB (5%)
Title : Одноголосый закадровый - BD 3D Rus
Language : Russian
Default : Yes
Forced : No

Audio #2
ID : 3
Format : AC-3
Format/Info : Audio Coding 3
Mode extension : CM (complete main)
Format settings, Endianness : Big
Codec ID : A_AC3
Duration : 1h 1mn
Bit rate mode : Constant
Bit rate : 448 Kbps
Channel(s) : 2 channels
Channel positions : Front: L R
Sampling rate : 48.0 KHz
Bit depth : 16 bits
Compression mode : Lossy
Stream size : 197 MiB (4%)
Language : English
Default : No
Forced : No

Menu
00:00:00.000 : :1
00:10:00.600 : :2
00:20:01.200 : :3
00:30:01.800 : :4
00:40:02.400 : :5
00:50:03.000 : :6

















О методах просмотра 3D


ViKa
 
Раздал: 4.71 ТБ
Скачал: 139.97 ГБ
Ратио: 34.434
Сообщения: 25821
Зарегистрирован: 14 мар 2009, 20:33
  • Торрент
Автор: ViKa Хэш: ---
Добавлен: 07 окт 2015, 19:56 Приватный: Нет (DHT включён)
Статус: Проверен
Размер: 5.14 ГБ (5 514 829 637 байт)
Изменил:
---
Скачали: 0 (Раздающих: 0%)
Причина:
---
Здоровье: 0%
Сидеров: 0 Личеров: 0
Скорость раздачи: 0 байт/сек Скорость скачивания: 0 байт/сек
Последний сидер: Нет Последний личер: Нет
Для скачивания торрента необходимо зарегистрироваться или войти на трекер.

Форум Статистика

Сейчас этот форум просматривают: нет зарегистрированных пользователей и гости: 3

Настройки

Вернуться в TV / Документалки

cron
Ресурс не предоставляет электронные версии произведений, а занимается лишь коллекционированием и каталогизацией ссылок, присылаемых и публикуемых на форуме нашими читателями. Если вы являетесь правообладателем какого-либо представленного материала и не желаете чтобы ссылка на него находилась в нашем каталоге, свяжитесь с нами и мы незамедлительно удалим её. Файлы для обмена на трекере предоставлены пользователями сайта, и администрация не несёт ответственности за их содержание. Просьба не заливать файлы, защищенные авторскими правами, а также файлы нелегального содержания!
tracker_cron