Модераторы: K15, Младшие модераторы, Модераторы

Африка / Faszination Afrika (2012) BDRip 1080p

Сообщение ViKa » 19 сен 2015, 13:23

  • Постеры
Название: Африка
Оригинальное название: Faszination Afrika
Год выпуска: 2012
Страна: Германия
Жанр: документальный

Продолжительность: 00:55:35
Перевод: профессиональный одноголосый

Режиссёр: Бенжамин Ичер, Тимо Дж. Мэйер

Описание: Африка - колыбель человечества, сердце нашей Земли. Черный континент, где солнечные лучи проникают в землю почти вертикально. Поразительной красоты пейзажи, уникальная и разнообразная фауна, которая отлично приспособилась к условиям жизни на континенте. Растения, которые невозможно встретить нигде больше на нашей планете. Все это разнообразие природы в естественной среде захватывает дух. Отправляйтесь с нами к солнцу побродить по бесконечным саваннам и понаблюдать за слонами и жирафами на водопое. Вы будете просто поражены львами, зебрами, гиппопотамами и многими другими животными, населяющими континент...




Качество: BDRip 1080p Сравнение с исходником
Формат: MKV
Видео: MPEG-4 AVC, 12 Mбит/с, 1920x1080, 23,976 кадра/с
Аудио 1: русский, DTS, 768 kbps, 6 ch, 48 kHz [профессиональный одноголосый]
Аудио 2: английский, DTS, 768 kbps, 6 ch, 48 kHz [оригинал]
Субтитры: русские

Общее
Уникальный идентификатор : 211088415463315100164529559691274526421 (0x9ECE266810A0FBD3B0FD77086B589ED5)
Полное имя : D:VideoАфрика.2011.BDRip.1080p.mkv
Формат : Matroska
Версия формата : Version 4 / Version 2
Размер файла : 5,36 Гбайт
Продолжительность : 55 м.
Общий поток : 13,8 Мбит/сек
Название фильма : BDRip -- STarankov
Дата кодирования : UTC 2015-05-28 07:14:17
Программа кодирования : mkvmerge v7.9.0 ('Birds') 64bit
Библиотека кодирования : libebml v1.3.1 + libmatroska v1.4.2
_STATISTICS_WRITING_APP : mkvmerge v7.9.0 ('Birds') 64bit
_STATISTICS_WRITING_DATE_UTC : 2015-05-28 07:14:17
_STATISTICS_TAGS : BPS DURATION NUMBER_OF_FRAMES NUMBER_OF_BYTES
DURATION : 00:54:07.035000000
NUMBER_OF_FRAMES : 434
NUMBER_OF_BYTES : 38601

Видео
Идентификатор : 1
Формат : AVC
Формат/Информация : Advanced Video Codec
Профиль формата : High@L4.1
Параметр CABAC формата : Да
Параметр ReFrames формата : 4 кадра
Идентификатор кодека : V_MPEG4/ISO/AVC
Продолжительность : 55 м.
Битрейт : 12,0 Мбит/сек
Ширина : 1920 пикселей
Высота : 1080 пикселей
Соотношение сторон : 16:9
Режим частоты кадров : Постоянный
Частота кадров : 23,976 кадра/сек
Цветовое пространство : YUV
Субдискретизация насыщенности : 4:2:0
Битовая глубина : 8 бит
Тип развёртки : Прогрессивная
Бит/(Пиксели*Кадры) : 0.241
Размер потока : 4,66 Гбайт (87%)
Библиотека кодирования : x264 core 146 r2538 121396c
Настройки программы : cabac=1 / ref=4 / deblock=1:-1:-1 / analyse=0x3:0x113 / me=umh / subme=10 / psy=1 / psy_rd=1.00:0.15 / mixed_ref=1 / me_range=32 / chroma_me=1 / trellis=2 / 8x8dct=1 / cqm=0 / deadzone=21,11 / fast_pskip=1 / chroma_qp_offset=-3 / threads=6 / lookahead_threads=1 / sliced_threads=0 / nr=0 / decimate=1 / interlaced=0 / bluray_compat=0 / constrained_intra=0 / bframes=8 / b_pyramid=2 / b_adapt=2 / b_bias=0 / direct=1 / weightb=1 / open_gop=0 / weightp=2 / keyint=230 / keyint_min=23 / scenecut=40 / intra_refresh=0 / rc_lookahead=40 / rc=crf / mbtree=0 / crf=20.0 / qcomp=0.60 / qpmin=0 / qpmax=69 / qpstep=4 / vbv_maxrate=40000 / vbv_bufsize=50000 / crf_max=0.0 / nal_hrd=none / filler=0 / ip_ratio=1.40 / pb_ratio=1.30 / aq=1:1.00
Язык : English
Default : Да
Forced : Нет
_STATISTICS_WRITING_APP : mkvmerge v7.9.0 ('Birds') 64bit
_STATISTICS_WRITING_DATE_UTC : 2015-05-28 07:14:17
_STATISTICS_TAGS : BPS DURATION NUMBER_OF_FRAMES NUMBER_OF_BYTES
DURATION : 00:55:35.916000000
NUMBER_OF_FRAMES : 79982
NUMBER_OF_BYTES : 5114063470

Аудио #1
Идентификатор : 2
Формат : DTS
Формат/Информация : Digital Theater Systems
Режим : 16
Параметр Endianness формата : Big
Идентификатор кодека : A_DTS
Продолжительность : 55 м.
Вид битрейта : Постоянный
Битрейт : 768 Кбит/сек
Каналы : 6 каналов
Расположение каналов : Front: L C R, Side: L R, LFE
Частота : 48,0 КГц
Битовая глубина : 24 бит
Метод сжатия : С потерями
Размер потока : 305 Мбайт (6%)
Заголовок : профессиональный одноголосый
Язык : Russian
Default : Да
Forced : Нет

Аудио #2
Идентификатор : 3
Формат : DTS
Формат/Информация : Digital Theater Systems
Режим : 16
Параметр Endianness формата : Big
Идентификатор кодека : A_DTS
Продолжительность : 55 м.
Вид битрейта : Постоянный
Битрейт : 768 Кбит/сек
Каналы : 6 каналов
Расположение каналов : Front: L C R, Side: L R, LFE
Частота : 48,0 КГц
Битовая глубина : 16 бит
Метод сжатия : С потерями
Размер потока : 305 Мбайт (6%)
Заголовок : Original
Язык : English
Default : Нет
Forced : Нет

Текст
Идентификатор : 4
Формат : UTF-8
Идентификатор кодека : S_TEXT/UTF8
Идентификатор кодека/Информация : UTF-8 Plain Text
Заголовок : русские
Язык : Russian
Default : Нет
Forced : Нет





ViKa
 
Раздал: 4.71 ТБ
Скачал: 139.97 ГБ
Ратио: 34.434
Сообщения: 25821
Зарегистрирован: 14 мар 2009, 20:33
  • Торрент
Автор: ViKa Хэш: ---
Добавлен: 19 сен 2015, 13:23 Приватный: Нет (DHT включён)
Статус: Проверен
Размер: 5.36 ГБ (5 755 978 596 байт)
Изменил:
---
Скачали: 0 (Раздающих: 0%)
Причина:
---
Здоровье: 0%
Сидеров: 0 Личеров: 0
Скорость раздачи: 0 байт/сек Скорость скачивания: 0 байт/сек
Последний сидер: Нет Последний личер: Нет
Для скачивания торрента необходимо зарегистрироваться или войти на трекер.

Форум Статистика

Сейчас этот форум просматривают: нет зарегистрированных пользователей и гости: 3

Настройки

Вернуться в TV / Документалки

cron
Ресурс не предоставляет электронные версии произведений, а занимается лишь коллекционированием и каталогизацией ссылок, присылаемых и публикуемых на форуме нашими читателями. Если вы являетесь правообладателем какого-либо представленного материала и не желаете чтобы ссылка на него находилась в нашем каталоге, свяжитесь с нами и мы незамедлительно удалим её. Файлы для обмена на трекере предоставлены пользователями сайта, и администрация не несёт ответственности за их содержание. Просьба не заливать файлы, защищенные авторскими правами, а также файлы нелегального содержания!
tracker_cron