Модераторы: K15, Модераторы, Младшие модераторы

Секретные территории. Тайна вредного мира (2015) WEBRip 720p

Сообщение ViKa » 18 сен 2015, 21:32

  • Постеры
Информация о фильме
Название: Секретные территории. Тайна вредного мира
Год выхода: 2015
Режиссер: Сергей Сафиулин
В ролях: ,

О фильме:
Правда ли, что промышленное производство убивает полезные свойства продуктов? Опасно ли применение бытовой химии? Насколько вредно побочное действие новых фармацевтических препаратов? От чего все чаще мы узнаем о неизвестных доселе вирусах? Почему окружающий мир становится все опаснее и как долго мы сможем в нем обитать?


Страна: Россия
Студия: РенТВ
Продолжительность: 1:36:57
Перевод: не требуется

Файл
Кодек: MPEG-4
Качество: WEBRip 720p
Видео: ~2167 Кбит/с, 1248x720
Звук: AC3, 2ch, 192 Кбит/с








Общее
Полное имя : E:ЗагрузкиСекретные территории. Тайна вредного мира.mp4
Формат : MPEG-4
Профиль формата : Base Media / Version 2
Идентификатор кодека : mp42
Размер файла : 1,60 Гбайт
Продолжительность : 1 ч. 36 м.
Режим общего битрейта : Переменный
Общий поток : 2361 Кбит/сек
Дата кодирования : UTC 2015-02-23 05:07:25
Дата пометки : UTC 2015-02-23 05:07:25
gsst : 0
gstd : 5817526
gssd : B5F1EDAC4HH1424720966821127
gshh : r1---sn-8ph2xajvh-vhne.googlevideo.com

Видео
Идентификатор : 1
Формат : AVC
Формат/Информация : Advanced Video Codec
Профиль формата : High@L3.1
Параметр CABAC формата : Да
Параметр ReFrames формата : 1 кадр
Идентификатор кодека : avc1
Идентификатор кодека/Информация : Advanced Video Coding
Продолжительность : 1 ч. 36 м.
Битрейт : 2167 Кбит/сек
Максимальный битрейт : 10,0 Мбит/сек
Ширина : 1248 пикселей
Высота : 720 пикселей
Соотношение сторон : 1,733
Режим частоты кадров : Постоянный
Частота кадров : 25,000 кадров/сек
Цветовое пространство : YUV
Субдискретизация насыщенности : 4:2:0
Битовая глубина : 8 бит
Тип развёртки : Прогрессивная
Бит/(Пиксели*Кадры) : 0.096
Размер потока : 1,47 Гбайт (92%)
Дата пометки : UTC 2015-02-23 05:09:22

Аудио
Идентификатор : 2
Формат : AAC
Формат/Информация : Advanced Audio Codec
Профиль формата : LC
Идентификатор кодека : 40
Продолжительность : 1 ч. 36 м.
Вид битрейта : Переменный
Битрейт : 192 Кбит/сек
Максимальный битрейт : 201 Кбит/сек
Каналы : 2 канала
Расположение каналов : Front: L R
Частота : 44,1 КГц
Метод сжатия : С потерями
Размер потока : 133 Мбайт (8%)
Заголовок : IsoMedia File Produced by Google, 5-11-2011
Язык : Russian
Дата кодирования : UTC 2015-02-23 05:08:36
Дата пометки : UTC 2015-02-23 05:09:22


ViKa
 
Раздал: 4.71 ТБ
Скачал: 139.97 ГБ
Ратио: 34.434
Сообщения: 25821
Зарегистрирован: 14 мар 2009, 20:33
  • Торрент
Автор: ViKa Хэш: ---
Добавлен: 18 сен 2015, 21:32 Приватный: Нет (DHT включён)
Статус: Проверен
Размер: 1.6 ГБ (1 716 904 249 байт)
Изменил:
---
Скачали: 0 (Раздающих: 0%)
Причина:
---
Здоровье: 0%
Сидеров: 0 Личеров: 0
Скорость раздачи: 0 байт/сек Скорость скачивания: 0 байт/сек
Последний сидер: Нет Последний личер: Нет
Для скачивания торрента необходимо зарегистрироваться или войти на трекер.

Форум Статистика

Сейчас этот форум просматривают: нет зарегистрированных пользователей и гости: 6

Настройки

Вернуться в TV / Документалки

cron
Ресурс не предоставляет электронные версии произведений, а занимается лишь коллекционированием и каталогизацией ссылок, присылаемых и публикуемых на форуме нашими читателями. Если вы являетесь правообладателем какого-либо представленного материала и не желаете чтобы ссылка на него находилась в нашем каталоге, свяжитесь с нами и мы незамедлительно удалим её. Файлы для обмена на трекере предоставлены пользователями сайта, и администрация не несёт ответственности за их содержание. Просьба не заливать файлы, защищенные авторскими правами, а также файлы нелегального содержания!
tracker_cron